<?xml version="1.0" standalone="no"?>
<!DOCTYPE svg PUBLIC "-//W3C//DTD SVG 1.1//EN" "http://www.w3.org/Graphics/SVG/1.1/DTD/svg11.dtd">
<svg xmlns="http://www.w3.org/2000/svg">
<defs >
<font id="TitilliumWeb" horiz-adv-x="475" ><font-face
    font-family="Titillium Web Light"
    units-per-em="1000"
    panose-1="0 0 4 0 0 0 0 0 0 0"
    ascent="1133"
    descent="-388"
    alphabetic="0" />
<glyph unicode=" " glyph-name="space" horiz-adv-x="220" />
<glyph unicode="!" glyph-name="exclam" horiz-adv-x="196" d="M120 223L229 700H289L173 223H120ZM70 0L93 100H154L131 0H70Z" />
<glyph unicode="&quot;" glyph-name="quotedbl" horiz-adv-x="314" d="M323 474H269L320 695H377L323 474ZM261 474H207L258 695H315L261 474Z" />
<glyph unicode="#" glyph-name="numbersign" horiz-adv-x="560" d="M573 184H459L414 0H358L403 184H236L191 0H135L180 184H66L79 236H193L241 432H127L140 484H254L301 667H357L310 484H477L524 667H580L533 484H647L634 432H520L472 236H586L573 184ZM416 236L464
432H297L249 236H416Z" />
<glyph unicode="$" glyph-name="dollar" horiz-adv-x="560" d="M433 672L462 671L505 785H552L507 666Q546 661 592 650L605 647L594 602Q541 611 487 616L391 363Q462 338 491 309T520 219Q520 113 457 52T286 -10Q274 -10 248 -8L206 -120H162L205 -5L96 12L107
60Q166 51 225 46L330 323Q260 347 230 376T199 463Q199 562 262 617T433 672ZM460 215Q460 254 442 272T370 310L268 43H290Q370 43 415 89T460 215ZM259 467Q259 431 279 413T350 376L442 619H429Q350 619 305 581T259 467Z" />
<glyph unicode="%" glyph-name="percent" horiz-adv-x="560" d="M297 658Q240 658 220 575Q210 538 210 518Q210 469 250 469Q281 469 299 492T328 555T338 615Q338 658 297 658ZM166 6L510 706L554 694L210 -5L166 6ZM167 566Q201 702 308 702Q389 702 389 623Q389
598 381 565Q363 495 326 460T239 425T170 460Q159 479 159 506T167 566ZM465 0T415 0Q334 0 334 83Q334 108 342 141Q376 277 483 277Q565 277 565 198Q565 173 557 140Q540 70 503 35ZM513 188Q513 233 472 233Q442 233 424 211T396 150T386 92Q386 44 425 44Q482
44 506 140Q513 168 513 188Z" />
<glyph unicode="&amp;" glyph-name="ampersand" horiz-adv-x="633" d="M446 705Q580 705 580 589Q580 511 530 457T379 365L498 200Q536 262 560 338H619Q590 240 533 157L631 32L589 -6L496 113Q399 -10 262 -10Q166 -10 122 28T78 157T126 308T286 410Q260 464
260 507Q260 599 309 652T446 705ZM269 44Q386 44 463 155L311 368Q217 334 179 283T141 151Q141 44 269 44ZM384 653T353 612T322 511T354 404Q442 439 480 481T518 586Q518 653 443 653Q384 653 353 612Z" />
<glyph unicode="&apos;" glyph-name="quotesingle" horiz-adv-x="168" d="M219 474H165L216 695H273L219 474Z" />
<glyph unicode="(" glyph-name="parenleft" horiz-adv-x="226" d="M174 293Q150 194 150 120Q150 -18 160 -98L164 -124H108Q88 -40 88 80T111 299T167 476Q236 636 289 714L312 748H370Q232 534 174 293Z" />
<glyph unicode=")" glyph-name="parenright" horiz-adv-x="225" d="M196 337Q220 436 220 510Q220 648 210 728L206 754H262Q282 670 282 550T259 331T203 154Q134 -6 81 -84L58 -118H0Q138 96 196 337Z" />
<glyph unicode="*" glyph-name="asterisk" horiz-adv-x="411" d="M488 514H354L395 387L353 374L311 502L203 423L177 458L286 537L178 616L205 652L313 573L354 700L397 686L356 558H488V514Z" />
<glyph unicode="+" glyph-name="plus" horiz-adv-x="560" d="M114 223V279H308V480H365V279H561V223H365V20H308V223H114Z" />
<glyph unicode="," glyph-name="comma" horiz-adv-x="185" d="M47 -129H-2L92 100H158L47 -129Z" />
<glyph unicode="-" glyph-name="hyphen" horiz-adv-x="354" d="M109 240L123 296H369L355 240H109Z" />
<glyph unicode="." glyph-name="period" horiz-adv-x="172" d="M56 0L79 100H140L117 0H56Z" />
<glyph unicode="/" glyph-name="slash" horiz-adv-x="406" d="M99 -7L43 14L469 704L526 683L99 -7Z" />
<glyph unicode="0" glyph-name="zero" horiz-adv-x="560" d="M171 516T243 593T412 670T559 622T609 479Q609 355 573 245T464 63T297 -10T153 38T103 177Q103 296 137 406ZM411 616Q352 616 303 573T225 463Q165 324 165 184T297 44Q356 44 405 84T484 189Q546
325 546 470T411 616Z" />
<glyph unicode="1" glyph-name="one" horiz-adv-x="560" d="M240 529L476 661H530L378 0H317L451 585L256 478L240 529Z" />
<glyph unicode="2" glyph-name="two" horiz-adv-x="560" d="M446 356T491 410T537 517T504 594T404 617Q330 617 246 600L217 594L223 643Q324 671 414 671Q599 671 599 527Q599 454 552 393T414 260L158 54H503L490 0H68L80 50L350 276Q446 356 491 410Z" />
<glyph unicode="3" glyph-name="three" horiz-adv-x="560" d="M418 670Q592 670 592 537T452 351Q493 334 514 303T535 217Q535 113 460 52T269 -10Q227 -10 179 -2T102 16L75 24L89 71Q195 44 276 44T415 90T473 213Q473 317 350 318H220L233 368L363 370Q419
370 474 414T529 522Q529 571 500 593T420 616Q327 616 244 601L217 596L223 643Q320 670 418 670Z" />
<glyph unicode="4" glyph-name="four" horiz-adv-x="560" d="M368 -1L398 127H79L90 174L414 660H482L157 180H410L462 405H523L471 180H555L543 127H459L429 -1H368Z" />
<glyph unicode="5" glyph-name="five" horiz-adv-x="560" d="M384 413Q555 413 555 271Q555 153 475 73T278 -8Q196 -8 102 16L72 23L88 73Q198 46 282 46T429 109T492 263Q492 358 369 358Q336 358 294 347T226 324L200 312L150 321L255 660H627L615 606H293L216
367Q312 413 384 413Z" />
<glyph unicode="6" glyph-name="six" horiz-adv-x="560" d="M613 600Q532 616 472 616T374 600T309 560T260 502Q224 446 200 366Q296 411 387 411T522 370T566 255Q566 135 496 63T301 -10Q211 -10 163 48T115 215Q115 338 170 454Q198 514 238 562T338 640T470
670Q534 670 608 656L631 651L613 600ZM373 356Q334 356 288 345T216 324L189 313Q178 280 178 207T209 89T302 44Q399 44 451 99T503 241Q503 300 473 328T373 356Z" />
<glyph unicode="7" glyph-name="seven" horiz-adv-x="560" d="M221 605L234 660H628L605 560L209 -11L154 8L545 569L553 605H221Z" />
<glyph unicode="8" glyph-name="eight" horiz-adv-x="560" d="M255 633T311 652T454 671T590 636T639 538T595 422T473 346Q529 325 549 294T570 230T563 170T536 110T485 52T397 8T270 -10Q66 -10 66 127Q66 275 239 346Q193 369 177 394T160 459T175 535T223
602ZM132 92T170 68T275 44T387 61T456 104Q506 158 506 207T482 278T400 316H296Q227 297 180 254T132 136Q132 92 170 68ZM426 616Q321 616 272 572T222 465Q222 432 241 409T309 369H413Q495 389 542 444Q572 479 572 524Q572 616 426 616Z" />
<glyph unicode="9" glyph-name="nine" horiz-adv-x="560" d="M429 670Q594 670 594 477Q594 420 579 348Q545 162 456 76T238 -10Q168 -10 102 6L78 11L99 65Q175 47 253 47Q444 47 507 290Q383 252 312 252Q218 252 176 300Q148 334 148 392Q148 417 153 447Q172
544 248 607T429 670ZM538 464Q538 614 415 614Q342 614 286 570T215 450Q210 426 210 406Q210 308 331 308Q391 308 488 335L521 344Q538 411 538 464Z" />
<glyph unicode=":" glyph-name="colon" horiz-adv-x="174" d="M134 338L157 438H218L195 338H134ZM56 0L79 100H140L117 0H56Z" />
<glyph unicode=";" glyph-name="semicolon" horiz-adv-x="207" d="M10 -129L104 100H170L59 -129H10ZM154 338L177 438H238L215 338H154Z" />
<glyph unicode="&lt;" glyph-name="less" horiz-adv-x="560" d="M524 423L165 252L524 78V14L104 224V278L524 486V423Z" />
<glyph unicode="=" glyph-name="equal" horiz-adv-x="560" d="M123 312V368H552V312H123ZM123 133V189H552V133H123Z" />
<glyph unicode="&gt;" glyph-name="greater" horiz-adv-x="560" d="M508 252L149 423V486L569 278V224L149 14V78L508 252Z" />
<glyph unicode="?" glyph-name="question" horiz-adv-x="410" d="M413 705T456 675T499 587T483 494T435 427T333 340T250 232L242 193H185Q187 222 192 248Q205 314 295 383Q380 451 407 487T435 577Q435 649 327 649Q270 649 206 635L183 630L186 680Q274 705
343 705ZM146 1L168 104H230L207 1H146Z" />
<glyph unicode="@" glyph-name="at" horiz-adv-x="927" d="M639 719Q732 719 799 697T904 637Q973 566 973 444Q973 381 952 291T905 138T850 44T790 1T718 -10Q632 -10 623 49Q505 -10 432 -10Q383 -10 355 10T320 65T313 116Q313 161 321 209Q374 510 575 510Q629
510 758 486Q739 413 707 268T675 93T687 55T733 47T792 64T845 139T893 284T914 400T916 454T905 522T862 596Q795 665 628 665Q437 665 330 572T169 263Q148 178 148 111Q148 -145 449 -145L585 -136L575 -190Q480 -200 435 -200Q334 -200 262 -172T154 -99T103
2T89 90T91 157T109 263Q167 511 291 615T639 719ZM448 46Q513 46 615 101Q620 158 688 442Q632 457 571 457Q494 457 451 395T381 208Q372 166 372 135Q372 46 446 46Q447 46 448 46Z" />
<glyph unicode="A" glyph-name="A" horiz-adv-x="555" d="M27 0L382 695H508L531 0H470L462 191H188L89 0H27ZM417 640L215 245H462L449 640H417Z" />
<glyph unicode="B" glyph-name="B" horiz-adv-x="578" d="M461 695Q543 695 583 664T624 560T586 435T490 360Q534 344 556 316T578 240Q578 129 510 65T315 0H81L241 695H461ZM386 328H218L155 54H328Q416 54 465 103T514 239Q514 289 481 308T386 328ZM450 641H289L230
382H396Q469 382 515 431T561 554Q561 603 535 622T450 641Z" />
<glyph unicode="C" glyph-name="C" horiz-adv-x="506" d="M305 -10Q115 -10 115 189Q115 331 168 462Q196 531 235 584T334 671T464 705Q533 705 605 688L629 683L615 633Q534 649 464 649T338 606T250 493Q179 348 179 191Q179 117 211 82T314 46Q389 46 453
58L476 63L473 12Q384 -10 305 -10Z" />
<glyph unicode="D" glyph-name="D" horiz-adv-x="607" d="M319 0H81L241 695H466Q559 695 604 646T649 489Q649 351 598 227Q542 87 440 31Q385 0 319 0ZM552 275T568 348T585 495T555 604T454 640H290L156 55H329Q390 55 440 98T521 208Z" />
<glyph unicode="E" glyph-name="E" horiz-adv-x="507" d="M81 0L241 695H624L611 640H290L230 382H496L483 327H218L155 55H476L463 0H81Z" />
<glyph unicode="F" glyph-name="F" horiz-adv-x="483" d="M81 0L241 695H615L602 640H290L223 350H491L478 296H210L142 0H81Z" />
<glyph unicode="G" glyph-name="G" horiz-adv-x="573" d="M320 -10Q116 -10 116 182Q116 377 200 534Q242 611 311 658T469 705Q553 705 640 683L667 676L651 628Q550 650 471 650T335 605T246 488Q180 342 180 181Q180 45 326 45Q382 45 442 58L462 63L518 301H403L415
354H592L513 18Q420 -10 320 -10Z" />
<glyph unicode="H" glyph-name="H" horiz-adv-x="624" d="M482 0L556 322H216L142 0H81L241 695H303L229 377H569L643 695H704L544 0H482Z" />
<glyph unicode="I" glyph-name="I" horiz-adv-x="223" d="M81 0L241 695H303L142 0H81Z" />
<glyph unicode="J" glyph-name="J" horiz-adv-x="260" d="M343 695L209 114Q187 22 170 -9T131 -51Q89 -71 7 -71L17 -16Q84 -15 106 8T149 121L282 695H343Z" />
<glyph unicode="K" glyph-name="K" horiz-adv-x="516" d="M432 0L320 315L214 313L142 0H81L241 695H303L227 368L325 370L587 695H657L374 344L497 0H432Z" />
<glyph unicode="L" glyph-name="L" horiz-adv-x="436" d="M429 0H81L241 695H303L155 55H441L429 0Z" />
<glyph unicode="M" glyph-name="M" horiz-adv-x="778" d="M81 0L241 695H350L404 87L748 695H858L697 0H635L784 640H773L426 23H359L301 640H290L142 0H81Z" />
<glyph unicode="N" glyph-name="N" horiz-adv-x="625" d="M81 0L241 695H357L478 61H499L645 695H705L545 0H433L309 636H287L140 0H81Z" />
<glyph unicode="O" glyph-name="O" horiz-adv-x="631" d="M180 115T215 80T327 45T457 87Q530 145 569 261T609 495Q609 575 572 612T463 650T340 610Q265 552 223 432T180 199Q180 115 215 80ZM673 363T630 242T509 55T324 -10T167 38T117 205T158 443T278 633T459
705Q673 705 673 498Q673 363 630 242Z" />
<glyph unicode="P" glyph-name="P" horiz-adv-x="547" d="M366 241H198L142 0H81L241 695H465Q549 695 587 656T626 538Q626 407 558 324T366 241ZM376 296Q467 296 514 365T562 538Q562 589 538 614T457 639H290L211 296H376Z" />
<glyph unicode="Q" glyph-name="Q" horiz-adv-x="631" d="M328 -10Q217 -10 167 38T117 205T158 443T278 633T459 705Q673 705 673 498Q673 363 630 242Q574 83 458 21L505 -124L447 -143L402 0Q364 -10 328 -10ZM180 115T215 80T327 45T457 87Q530 145 569 261T609
495Q609 575 572 612T463 650T340 610Q265 552 223 432T180 199Q180 115 215 80Z" />
<glyph unicode="R" glyph-name="R" horiz-adv-x="566" d="M457 695Q544 695 586 658T629 535Q629 423 573 359T445 278L526 0H464L387 270H205L142 0H81L241 695H457ZM565 533Q565 592 538 616T449 641H290L217 324H379Q463 324 514 382T565 533Z" />
<glyph unicode="S" glyph-name="S" horiz-adv-x="500" d="M580 632Q476 650 400 650T276 609T228 490Q228 447 255 428T360 383T470 326T502 230Q502 119 436 55T256 -10Q180 -10 86 8L57 13L68 63Q185 45 265 45T392 93T439 226Q439 271 416 290T316 335T202
391T165 486Q165 590 232 647T411 705Q489 705 566 686L591 679L580 632Z" />
<glyph unicode="T" glyph-name="T" horiz-adv-x="472" d="M157 640L170 695H620L607 640H413L265 0H204L351 640H157Z" />
<glyph unicode="U" glyph-name="U" horiz-adv-x="593" d="M176 139Q176 46 315 46Q399 46 441 84T503 206L616 695H678L565 205Q539 95 480 43T320 -10Q115 -10 115 132Q115 177 126 218L236 695H297L186 213Q176 173 176 139Z" />
<glyph unicode="V" glyph-name="V" horiz-adv-x="542" d="M611 695H673L338 0H198L184 695H246L255 55H303L611 695Z" />
<glyph unicode="W" glyph-name="W" horiz-adv-x="820" d="M190 695H251L222 56H252L532 685H598L583 56H611L883 695H945L646 0H529L545 589L284 0H164L190 695Z" />
<glyph unicode="X" glyph-name="X" horiz-adv-x="512" d="M248 695L348 394L587 695H656L373 343L490 0H427L326 298L84 0H15L300 348L185 695H248Z" />
<glyph unicode="Y" glyph-name="Y" horiz-adv-x="490" d="M635 695L340 298L270 0H211L281 304L173 695H235L324 358L569 695H635Z" />
<glyph unicode="Z" glyph-name="Z" horiz-adv-x="496" d="M188 640L201 695H617L595 602L123 79L117 55H467L454 0H38L59 90L530 612L537 640H188Z" />
<glyph unicode="[" glyph-name="bracketleft" horiz-adv-x="283" d="M238 747H425L413 694H286L107 -69H234L220 -122H34L238 747Z" />
<glyph unicode="\" glyph-name="backslash" horiz-adv-x="411" d="M383 10L320 0L189 691L252 701L383 10Z" />
<glyph unicode="]" glyph-name="bracketright" horiz-adv-x="283" d="M190 -121H3L15 -68H142L321 695H194L208 748H394L190 -121Z" />
<glyph unicode="^" glyph-name="asciicircum" horiz-adv-x="560" d="M496 320L343 600L196 320H131L315 660H370L561 320H496Z" />
<glyph unicode="_" glyph-name="underscore" horiz-adv-x="602" d="M58 -79H507L492 -139H45L58 -79Z" />
<glyph unicode="`" glyph-name="grave" horiz-adv-x="518" d="M318 734L494 640L466 599L289 687L318 734Z" />
<glyph unicode="a" glyph-name="a" horiz-adv-x="493" d="M216 -10Q91 -10 91 131Q91 262 154 380Q184 437 233 473T342 510Q396 510 501 492L536 486L460 161Q446 105 436 27L432 1L374 -1Q389 92 393 113Q389 108 383 100T357 70T317 33T269 4T216 -10ZM467
442Q395 457 340 457T239 402T174 275T153 145T171 65T227 43T307 78T378 148L406 184L467 442Z" />
<glyph unicode="b" glyph-name="b" horiz-adv-x="492" d="M386 510Q460 510 488 471T516 359Q516 271 480 176Q436 63 359 16Q315 -10 272 -10Q195 -10 102 8L71 14L235 722H295L226 427Q235 436 250 450T308 487T386 510ZM141 57Q216 43 264 43T353 80T414 172Q454
280 454 343T438 431T369 456Q339 456 300 433T236 386L211 362L141 57Z" />
<glyph unicode="c" glyph-name="c" horiz-adv-x="404" d="M460 498L477 494L462 446Q400 457 356 457Q290 457 244 410Q156 322 156 147Q156 95 182 69T266 43Q301 43 360 55L379 59L376 11Q308 -10 248 -10Q95 -10 95 137Q95 288 158 395Q190 448 241 479T350
510T460 498Z" />
<glyph unicode="d" glyph-name="d" horiz-adv-x="493" d="M213 -10Q91 -10 91 129Q91 217 119 302T206 448T340 509Q390 509 456 496L477 492L531 722H591L423 0H365L387 98Q336 30 267 2Q239 -10 213 -10ZM466 442Q399 457 341 457T239 402T174 273T153 129Q153
43 231 43Q264 43 307 75T377 140L404 172L466 442Z" />
<glyph unicode="e" glyph-name="e" horiz-adv-x="458" d="M154 96T181 70T249 44Q326 44 396 62L420 69L416 20Q329 -10 250 -10Q93 -10 93 138Q93 274 158 387Q189 442 242 475T362 509Q503 509 503 395Q503 307 435 272T222 236H166Q154 186 154 141ZM234 285Q344
285 393 308T443 395T359 458Q228 458 175 285H234Z" />
<glyph unicode="f" glyph-name="f" horiz-adv-x="305" d="M380 732Q412 732 450 723L462 720L450 673Q409 680 372 680T313 650T273 547L261 500H403L389 447H250L146 0L86 -225H34L190 447H130L143 500H201L213 549Q237 650 274 691T380 732Z" />
<glyph unicode="g" glyph-name="g" horiz-adv-x="464" d="M189 -237Q111 -237 66 -202T20 -107Q20 -22 155 50Q140 65 140 88T153 135T180 174L193 189Q124 220 124 301T178 446T324 510Q370 510 403 498L414 494L562 500L550 447H453Q472 418 472 374Q472 299
417 236T261 173L231 175Q196 131 196 108T214 77T302 61T406 26T441 -55Q441 -129 372 -183T189 -237ZM144 4T111 -28T78 -97T108 -160T204 -185T326 -150T382 -59Q382 -25 359 -11T274 11T189 27Q144 4 111 -28ZM269 224Q339 224 377 271T415 366T393 435T315
458T220 411T182 310Q182 224 269 224Z" />
<glyph unicode="h" glyph-name="h" horiz-adv-x="495" d="M393 510Q449 510 479 477T509 393T489 254L430 0H371L430 252Q448 329 448 377Q448 456 374 456Q341 456 299 425T231 362L205 330L129 0H69L236 722H296L222 402Q273 470 340 498Q368 510 393 510Z" />
<glyph unicode="i" glyph-name="i" horiz-adv-x="197" d="M68 0L184 500H244L128 0H68ZM210 616L229 696H289L271 616H210Z" />
<glyph unicode="j" glyph-name="j" horiz-adv-x="197" d="M68 0L184 500H244L128 0Q102 -113 72 -149T-72 -237L-92 -188Q1 -141 24 -113T68 0ZM212 617L230 695H290L272 617H212Z" />
<glyph unicode="k" glyph-name="k" horiz-adv-x="440" d="M129 0H69L236 722H296L198 297L269 299L464 500H535L314 270L416 0H352L258 247L185 246L129 0Z" />
<glyph unicode="l" glyph-name="l" horiz-adv-x="207" d="M74 0L241 722H300L133 0H74Z" />
<glyph unicode="m" glyph-name="m" horiz-adv-x="774" d="M447 377Q447 456 373 456Q340 456 298 425T230 362L205 331L128 0H68L184 500H242L222 403Q273 471 340 498Q367 510 394 510T444 501T476 477Q498 449 503 416Q508 422 532 443T576 478Q625 510 677
510T759 477T789 395T769 254L710 0H650L709 252Q728 333 728 374Q728 456 654 456Q624 456 587 432T527 382L505 358Q503 315 488 254L429 0H369L428 252Q447 333 447 377Z" />
<glyph unicode="n" glyph-name="n" horiz-adv-x="494" d="M392 510Q449 510 479 477T509 392T489 256L429 0H370L429 252Q448 333 448 377Q448 456 373 456Q340 456 298 425T230 362L205 331L128 0H68L184 500H242L221 403Q271 470 340 498Q367 510 392 510Z" />
<glyph unicode="o" glyph-name="o" horiz-adv-x="494" d="M345 509Q513 509 513 344Q513 196 443 93T258 -10Q94 -10 94 148Q94 297 165 403T345 509ZM258 43Q344 43 398 131T452 345Q452 396 425 426T345 457Q262 457 208 365T154 148Q154 43 258 43Z" />
<glyph unicode="p" glyph-name="p" horiz-adv-x="492" d="M390 510Q516 510 516 368Q516 283 489 199T402 52T267 -10Q210 -10 150 4L130 8L76 -225H17L184 500H242L220 401Q229 413 251 435T293 472Q345 510 390 510ZM374 456Q343 456 301 424T231 360L204 327L141
58Q208 43 259 43T348 75T408 158Q455 264 455 366Q455 456 374 456Z" />
<glyph unicode="q" glyph-name="q" horiz-adv-x="491" d="M216 -10Q153 -10 122 26T90 139T118 301T205 447T339 509Q397 509 502 492L535 486L372 -218H313L386 98Q334 29 268 2Q241 -10 216 -10ZM465 442Q400 457 342 457T239 403T173 276T152 133Q152 43 233
43Q273 43 324 89Q373 133 392 158L403 172L465 442Z" />
<glyph unicode="r" glyph-name="r" horiz-adv-x="311" d="M68 0L185 500H244L226 425Q322 491 413 510L398 449Q340 435 246 386L215 370L129 0H68Z" />
<glyph unicode="s" glyph-name="s" horiz-adv-x="428" d="M470 443Q377 457 317 457T222 425T187 348Q187 321 206 308T293 279T391 242T422 170Q422 83 362 37T207 -10Q138 -10 74 6L52 11L63 59Q155 43 217 43T320 72T361 158Q361 190 340 202T253 230T157 267T127
335Q127 411 181 460T321 509Q387 509 459 496L483 491L470 443Z" />
<glyph unicode="t" glyph-name="t" horiz-adv-x="315" d="M179 94Q179 43 234 43L314 49L310 2Q258 -10 214 -10T143 14T116 78T133 186L194 447H126L139 500H207L244 653H304L266 500H415L402 447H254L192 183Q179 127 179 94Z" />
<glyph unicode="u" glyph-name="u" horiz-adv-x="494" d="M217 -10Q161 -10 131 23T100 108T120 244L180 500H239L180 248Q161 167 161 126Q161 44 236 44Q269 44 311 75T378 137L404 168L481 500H541L425 0H367L388 97Q338 30 270 2Q242 -10 217 -10Z" />
<glyph unicode="v" glyph-name="v" horiz-adv-x="452" d="M142 500H201L215 52H250L478 500H541L282 0H159L142 500Z" />
<glyph unicode="w" glyph-name="w" horiz-adv-x="723" d="M146 500H206L203 52H220L437 490H509L519 52H537L745 500H806L574 0H463L455 413L253 0H144L146 500Z" />
<glyph unicode="x" glyph-name="x" horiz-adv-x="416" d="M140 500H202L276 291L445 500H511L300 245L390 0H327L255 204L89 0H22L230 250L140 500Z" />
<glyph unicode="y" glyph-name="y" horiz-adv-x="452" d="M142 500H201L215 52H249L478 500H541L167 -224H106L224 0H159L142 500Z" />
<glyph unicode="z" glyph-name="z" horiz-adv-x="418" d="M141 447L155 500H495L484 448L121 52H392L380 0H39L48 52L410 447H141Z" />
<glyph unicode="{" glyph-name="braceleft" horiz-adv-x="319" d="M221 223Q221 204 197 120T173 4Q173 -70 269 -70L254 -126Q113 -122 113 -13Q113 20 137 105T161 215Q161 264 88 288L100 338Q165 355 189 380T224 460Q227 473 232 504Q245 578 252 598Q277
677 324 712T461 751L451 696Q382 692 348 662T301 569Q301 567 292 516T279 451Q265 389 239 359T158 311Q221 286 221 223Z" />
<glyph unicode="|" glyph-name="bar" horiz-adv-x="306" d="M180 -225V722H240V-225H180Z" />
<glyph unicode="}" glyph-name="braceright" horiz-adv-x="318" d="M241 400Q241 418 265 503T289 619Q289 693 193 693L208 749Q349 745 349 636Q349 603 325 518T301 408Q301 359 374 335L362 285Q297 268 273 243T238 163Q235 150 230 118Q217 45 210 25Q185
-54 138 -89T1 -128L11 -73Q80 -69 114 -39T161 54Q161 56 170 107T183 172Q197 234 223 264T304 312Q241 336 241 400Z" />
<glyph unicode="~" glyph-name="asciitilde" horiz-adv-x="560" d="M441 201Q411 201 337 234T244 267Q210 267 156 230L139 218L128 269Q190 323 243 323Q272 323 346 290T438 257Q473 257 526 293L543 305L554 255Q494 201 441 201Z" />
<glyph unicode="&#xa0;" glyph-name="uni00A0" horiz-adv-x="220" />
<glyph unicode="&#xa1;" glyph-name="exclamdown" horiz-adv-x="182" d="M184 277L75 -200H15L131 277H184ZM234 500L211 400H150L173 500H234Z" />
<glyph unicode="&#xa2;" glyph-name="cent" horiz-adv-x="560" d="M158 162Q158 199 170 248Q197 351 252 405T386 461L415 585H467L437 461L535 451L519 397Q435 405 399 405Q269 405 230 248Q219 196 219 166T244 115T326 95L454 102L442 49Q379 41 339 41L310
-82H258L287 38Q158 40 158 162Z" />
<glyph unicode="&#xa3;" glyph-name="sterling" horiz-adv-x="560" d="M590 617Q519 625 483 625T431 621T403 604T384 581T368 547Q359 520 345 464L333 415H536L524 362H320L251 53H401L478 70V18L398 0H81L93 53H189L259 362H185L198 415H272L284 471Q310 581
348 630T471 679Q524 679 582 668L603 664L590 617Z" />
<glyph unicode="&#xa4;" glyph-name="currency" horiz-adv-x="560" d="M393 75T337 75T235 108L165 37L123 80L193 149Q160 195 160 251T193 354L123 424L165 467L235 396Q281 428 337 428T439 396L510 467L552 424L481 353Q513 307 513 251T481 150L552 80L510
37L439 108Q393 75 337 75ZM288 133T338 133T422 167T456 251T422 335T338 370T253 336T218 252T253 168Z" />
<glyph unicode="&#xa5;" glyph-name="yen" horiz-adv-x="560" d="M142 318L154 372H293L178 661H244L360 370L604 661H683L438 372H573L561 318H395L380 300L362 223H539L526 168H349L309 0H249L288 168H107L120 223H300L318 302L314 318H142Z" />
<glyph unicode="&#xa6;" glyph-name="brokenbar" horiz-adv-x="313" d="M184 722H244V347H184V722ZM184 152H244V-225H184V152Z" />
<glyph unicode="&#xa7;" glyph-name="section" horiz-adv-x="466" d="M382 597Q312 597 275 563T237 471Q237 434 261 420T348 395Q475 372 475 288Q475 217 399 122Q416 99 416 73T411 23T390 -30T351 -83T288 -123T210 -139Q144 -139 64 -127L38 -123L55 -69Q157
-83 215 -83T314 -42T354 47Q354 78 333 91T240 117T139 157T109 226T130 306Q160 362 194 389Q174 413 174 462Q174 537 232 595T393 653Q453 653 518 642L541 638L526 583Q427 597 382 597ZM171 271T171 244T192 201T272 174T359 148Q362 151 374 170T400 220T414
276T392 315T316 341Q246 352 231 365Q209 343 190 307Z" />
<glyph unicode="&#xa8;" glyph-name="dieresis" horiz-adv-x="722" d="M249 625L268 707H317L298 625H249ZM428 625L446 707H495L476 625H428Z" />
<glyph unicode="&#xa9;" glyph-name="copyright" horiz-adv-x="645" d="M162 320T162 434T236 626T422 704T609 626T683 433T610 242T423 164T236 242ZM202 530T202 434T265 271T422 203T580 270T644 433T580 597T422 665T265 598ZM424 278Q361 278 336 316T311
433T336 551T425 590Q465 590 491 584L501 581L498 535Q459 542 423 542T373 517T360 435T374 352T427 326L498 333L501 288Q462 278 424 278Z" />
<glyph unicode="&#xaa;" glyph-name="ordfeminine" horiz-adv-x="348" d="M355 584Q355 613 316 613L204 606L210 646Q283 659 331 659T398 638Q411 624 411 604T406 564L374 426Q380 414 401 408L390 368Q360 368 347 373T324 392Q260 368 215 368Q144 368 144
427Q144 440 148 455Q158 496 182 515T255 538L347 544L353 566Q355 576 355 584ZM200 439Q200 413 229 413Q263 413 306 426L321 431L338 504L256 499Q212 496 202 455Q200 446 200 439Z" />
<glyph unicode="&#xab;" glyph-name="guillemotleft" horiz-adv-x="437" d="M478 402L459 339L323 247L414 145L397 89L262 234L273 265L478 402ZM303 402L284 339L148 247L239 145L222 89L87 234L98 265L303 402Z" />
<glyph unicode="&#xac;" glyph-name="logicalnot" horiz-adv-x="560" d="M126 338H551V120H494V283H126V338Z" />
<glyph unicode="&#xae;" glyph-name="registered" horiz-adv-x="645" d="M162 320T162 434T236 626T422 704T609 626T683 433T610 242T423 164T236 242ZM202 530T202 434T265 271T422 203T580 270T644 433T580 597T422 665T265 598ZM364 394V283H316V583H419Q477
583 505 562T533 490Q533 419 479 400L538 283H486L432 394H364ZM363 542V435H430Q460 435 472 447T485 488T469 530T417 542H363Z" />
<glyph unicode="&#xaf;" glyph-name="overscore" horiz-adv-x="433" d="M232 642L243 689H510L498 642H232Z" />
<glyph unicode="&#xb0;" glyph-name="degree" horiz-adv-x="560" d="M270 503T270 565T308 666T409 705T510 666T549 565T510 465T409 427T309 465ZM366 662T340 636T314 566T340 496T409 469T480 495T507 565T480 635T410 662Z" />
<glyph unicode="&#xb1;" glyph-name="plusminus" horiz-adv-x="560" d="M103 298V354H297V484H354V354H550V298H354V165H297V298H103ZM103 98H550V42H103V98Z" />
<glyph unicode="&#xb2;" glyph-name="twosuperior" horiz-adv-x="280" d="M346 720Q346 748 302 748Q275 748 228 740L213 738L223 787Q283 799 325 799Q404 799 404 741Q404 669 308 595L225 527H359L347 478H143L155 526L270 619Q304 646 321 665T342 699T346 720Z" />
<glyph unicode="&#xb3;" glyph-name="threesuperior" horiz-adv-x="280" d="M345 641Q382 629 382 598Q382 584 377 564Q354 468 248 468Q211 468 157 476L141 479L156 526Q210 518 260 518T322 565Q325 575 325 583Q325 614 283 614H218L229 661H294Q310 661
327 676T350 711T346 740T312 750Q270 750 228 744L214 742L222 789Q282 799 325 799Q410 799 410 743Q410 708 386 674Q371 654 345 641Z" />
<glyph unicode="&#xb4;" glyph-name="acute" horiz-adv-x="542" d="M285 601L279 647L497 741L504 688L285 601Z" />
<glyph unicode="&#xb5;" glyph-name="mu" horiz-adv-x="560" d="M204 200Q196 158 196 122T215 65T269 44T346 75T414 137L439 168L516 500H576L460 0H402L423 97Q373 30 304 2Q277 -10 252 -10Q195 -10 164 24L106 -225H46L215 500H274L221 275H222L204 200Z" />
<glyph unicode="&#xb6;" glyph-name="paragraph" horiz-adv-x="554" d="M147 476Q147 559 211 629T369 700H679L668 646H590L436 0H384L538 646H416L261 0H209L291 338Q218 339 183 378T147 476Z" />
<glyph unicode="&#xb7;" glyph-name="middot" horiz-adv-x="174" d="M114 254L137 359H200L177 254H114Z" />
<glyph unicode="&#xb8;" glyph-name="cedilla" horiz-adv-x="791" d="M419 -48Q502 -48 502 -102Q502 -112 499 -124Q480 -207 395 -207L317 -201L328 -157Q367 -161 395 -161Q437 -161 447 -122Q448 -116 448 -111Q448 -86 413 -86H369L391 5H428L414 -48H419Z" />
<glyph unicode="&#xb9;" glyph-name="onesuperior" horiz-adv-x="280" d="M205 721L323 790H374L297 478H243L306 731L220 681L205 721Z" />
<glyph unicode="&#xba;" glyph-name="ordmasculine" horiz-adv-x="340" d="M321 658Q415 658 419 583Q419 578 419 562T412 510Q395 435 357 401T262 366Q155 366 155 456Q155 481 163 515Q182 592 219 625T321 658ZM264 417Q302 417 323 438T354 499T363 562T351
597T306 608T252 587T220 525T210 466Q210 417 264 417Z" />
<glyph unicode="&#xbb;" glyph-name="guillemotright" horiz-adv-x="481" d="M292 89L311 152L447 244L356 346L373 402L508 257L497 226L292 89ZM73 89L92 152L228 244L137 346L154 402L289 257L278 226L73 89Z" />
<glyph unicode="&#xbc;" glyph-name="onequarter" horiz-adv-x="584" d="M182 721L300 790H351L274 478H220L283 731L197 681L182 721ZM165 -7L109 14L535 704L592 683L165 -7ZM476 0L488 51H345L357 97L487 312H546L416 101H500L526 188H576L554 101H584L572
51H542L529 0H476Z" />
<glyph unicode="&#xbd;" glyph-name="onehalf" horiz-adv-x="609" d="M182 721L300 790H351L274 478H220L283 731L197 681L182 721ZM165 -7L109 14L535 704L592 683L165 -7ZM575 242Q575 270 531 270Q504 270 458 262L442 260L452 309Q512 321 554 321Q633 321
633 263Q633 191 537 117L454 49H588L576 0H372L384 48L499 141Q533 168 550 187T571 221T575 242Z" />
<glyph unicode="&#xbe;" glyph-name="threequarters" horiz-adv-x="603" d="M345 641Q382 629 382 598Q382 584 377 564Q354 468 248 468Q211 468 157 476L141 479L156 526Q210 518 260 518T322 565Q325 575 325 583Q325 614 283 614H218L229 661H294Q310 661
327 676T350 711T346 740T312 750Q270 750 228 744L214 742L222 789Q282 799 325 799Q410 799 410 743Q410 708 386 674Q371 654 345 641ZM186 -7L130 14L556 704L613 683L186 -7ZM497 0L509 51H366L378 97L508 312H567L437 101H521L547 188H597L575 101H605L593
51H563L550 0H497Z" />
<glyph unicode="&#xbf;" glyph-name="questiondown" horiz-adv-x="401" d="M109 -204T66 -174T23 -86T39 7T87 74T190 161Q261 218 272 269L280 308H337Q335 279 330 253Q317 187 227 118Q142 50 115 14T87 -76Q87 -148 195 -148Q242 -148 316 -134L339 -129L336
-179Q248 -204 179 -204ZM376 500L354 397H292L315 500H376Z" />
<glyph unicode="&#xc0;" glyph-name="Agrave" horiz-adv-x="555" d="M358 925L533 830L507 787L329 875L358 925ZM27 0L382 695H508L531 0H470L462 191H188L89 0H27ZM417 640L215 245H462L449 640H417Z" />
<glyph unicode="&#xc1;" glyph-name="Aacute" horiz-adv-x="555" d="M396 790L388 835L607 930L616 878L396 790ZM27 0L382 695H508L531 0H470L462 191H188L89 0H27ZM417 640L215 245H462L449 640H417Z" />
<glyph unicode="&#xc2;" glyph-name="Acircumflex" horiz-adv-x="555" d="M311 797L472 931H502L599 797H543L482 883L377 797H311ZM27 0L382 695H508L531 0H470L462 191H188L89 0H27ZM417 640L215 245H462L449 640H417Z" />
<glyph unicode="&#xc3;" glyph-name="Atilde" horiz-adv-x="555" d="M533 809Q510 809 459 838T396 868Q377 868 324 830L306 817L304 861Q371 920 401 920T482 891T542 862Q562 862 610 898L626 910L629 868Q566 809 533 809ZM27 0L382 695H508L531 0H470L462
191H188L89 0H27ZM417 640L215 245H462L449 640H417Z" />
<glyph unicode="&#xc4;" glyph-name="Adieresis" horiz-adv-x="555" d="M349 820L367 903H417L397 820H349ZM533 820L553 903H602L582 820H533ZM27 0L382 695H508L531 0H470L462 191H188L89 0H27ZM417 640L215 245H462L449 640H417Z" />
<glyph unicode="&#xc5;" glyph-name="Aring" horiz-adv-x="555" d="M370 671Q354 688 354 708T359 745Q372 792 403 816T479 841T545 817Q558 802 558 782Q558 710 508 673L531 0H470L462 191H188L89 0H27L370 671ZM417 640L215 245H462L449 640H417ZM398 728Q398
702 425 695H463Q502 704 513 745Q514 752 514 763T504 786T469 798Q412 798 400 745Q398 736 398 728Z" />
<glyph unicode="&#xc6;" glyph-name="AE" horiz-adv-x="786" d="M357 0L401 191H185L86 0H27L382 697H905L893 640L567 642L504 382H774L762 326H492L428 57H753L741 0H357ZM412 640L212 247H414L509 640H412Z" />
<glyph unicode="&#xc7;" glyph-name="Ccedilla" horiz-adv-x="506" d="M297 -48Q380 -48 380 -102Q380 -112 377 -124Q358 -207 273 -207L195 -201L206 -157Q245 -161 273 -161Q315 -161 325 -122Q326 -116 326 -111Q326 -86 291 -86H247L266 -7Q115 12 115 189Q115
331 168 462Q196 531 235 584T334 671T464 705Q533 705 605 688L629 683L615 633Q534 649 464 649T338 606T250 493Q179 348 179 191Q179 117 211 82T314 46Q389 46 453 58L476 63L473 12Q384 -10 305 -10H302L292 -48H297Z" />
<glyph unicode="&#xc8;" glyph-name="Egrave" horiz-adv-x="507" d="M377 925L552 830L526 787L348 875L377 925ZM81 0L241 695H624L611 640H290L230 382H496L483 327H218L155 55H476L463 0H81Z" />
<glyph unicode="&#xc9;" glyph-name="Eacute" horiz-adv-x="507" d="M383 790L375 835L594 930L603 878L383 790ZM81 0L241 695H624L611 640H290L230 382H496L483 327H218L155 55H476L463 0H81Z" />
<glyph unicode="&#xca;" glyph-name="Ecircumflex" horiz-adv-x="507" d="M363 794L524 928H554L651 794H595L534 880L429 794H363ZM81 0L241 695H624L611 640H290L230 382H496L483 327H218L155 55H476L463 0H81Z" />
<glyph unicode="&#xcb;" glyph-name="Edieresis" horiz-adv-x="507" d="M343 820L361 903H411L391 820H343ZM527 820L547 903H596L576 820H527ZM81 0L241 695H624L611 640H290L230 382H496L483 327H218L155 55H476L463 0H81Z" />
<glyph unicode="&#xcc;" glyph-name="Igrave" horiz-adv-x="223" d="M180 925L355 830L329 787L151 875L180 925ZM81 0L241 695H303L142 0H81Z" />
<glyph unicode="&#xcd;" glyph-name="Iacute" horiz-adv-x="223" d="M241 790L233 835L452 930L461 878L241 790ZM81 0L241 695H303L142 0H81Z" />
<glyph unicode="&#xce;" glyph-name="Icircumflex" horiz-adv-x="223" d="M146 794L307 928H337L434 794H378L317 880L212 794H146ZM81 0L241 695H303L142 0H81Z" />
<glyph unicode="&#xcf;" glyph-name="Idieresis" horiz-adv-x="223" d="M177 823L195 906H245L225 823H177ZM361 823L381 906H430L410 823H361ZM81 0L241 695H303L142 0H81Z" />
<glyph unicode="&#xd0;" glyph-name="Eth" horiz-adv-x="611" d="M322 0H84L157 318H87L100 380H171L244 695H469Q562 695 607 646T652 489Q652 351 602 227Q545 87 444 31Q388 0 322 0ZM555 275T571 348T588 495T558 604T457 640H293L233 380H383L368 318H219L159
55H332Q393 55 443 98T524 208Z" />
<glyph unicode="&#xd1;" glyph-name="Ntilde" horiz-adv-x="625" d="M571 807Q548 807 497 836T434 866Q415 866 362 828L344 815L342 859Q409 918 439 918T520 889T580 860Q600 860 648 896L664 908L667 866Q604 807 571 807ZM81 0L241 695H357L478 61H499L645
695H705L545 0H433L309 636H287L140 0H81Z" />
<glyph unicode="&#xd2;" glyph-name="Ograve" horiz-adv-x="631" d="M417 925L592 830L566 787L388 875L417 925ZM180 115T215 80T327 45T457 87Q530 145 569 261T609 495Q609 575 572 612T463 650T340 610Q265 552 223 432T180 199Q180 115 215 80ZM673 363T630
242T509 55T324 -10T167 38T117 205T158 443T278 633T459 705Q673 705 673 498Q673 363 630 242Z" />
<glyph unicode="&#xd3;" glyph-name="Oacute" horiz-adv-x="631" d="M180 115T215 80T327 45T457 87Q530 145 569 261T609 495Q609 575 572 612T463 650T340 610Q265 552 223 432T180 199Q180 115 215 80ZM673 363T630 242T509 55T324 -10T167 38T117 205T158
443T278 633T459 705Q673 705 673 498Q673 363 630 242ZM433 790L425 835L644 930L653 878L433 790Z" />
<glyph unicode="&#xd4;" glyph-name="Ocircumflex" horiz-adv-x="631" d="M180 115T215 80T327 45T457 87Q530 145 569 261T609 495Q609 575 572 612T463 650T340 610Q265 552 223 432T180 199Q180 115 215 80ZM673 363T630 242T509 55T324 -10T167 38T117 205T158
443T278 633T459 705Q673 705 673 498Q673 363 630 242ZM356 797L517 931H547L644 797H588L527 883L422 797H356Z" />
<glyph unicode="&#xd5;" glyph-name="Otilde" horiz-adv-x="631" d="M585 807Q562 807 511 836T448 866Q429 866 376 828L358 815L356 859Q423 918 453 918T534 889T594 860Q614 860 662 896L678 908L681 866Q618 807 585 807ZM180 115T215 80T327 45T457 87Q530
145 569 261T609 495Q609 575 572 612T463 650T340 610Q265 552 223 432T180 199Q180 115 215 80ZM673 363T630 242T509 55T324 -10T167 38T117 205T158 443T278 633T459 705Q673 705 673 498Q673 363 630 242Z" />
<glyph unicode="&#xd6;" glyph-name="Odieresis" horiz-adv-x="631" d="M383 820L402 902H458L439 820H383ZM569 820L587 902H642L623 820H569ZM180 115T215 80T327 45T457 87Q530 145 569 261T609 495Q609 575 572 612T463 650T340 610Q265 552 223 432T180 199Q180
115 215 80ZM673 363T630 242T509 55T324 -10T167 38T117 205T158 443T278 633T459 705Q673 705 673 498Q673 363 630 242Z" />
<glyph unicode="&#xd7;" glyph-name="multiply" horiz-adv-x="560" d="M171 456L337 288L503 456L542 417L375 251L542 85L503 45L337 213L171 46L132 85L299 251L132 416L171 456Z" />
<glyph unicode="&#xd8;" glyph-name="Oslash" horiz-adv-x="631" d="M162 42Q117 90 117 207T158 443T278 633T459 705Q543 705 593 674L675 794L716 776L627 646Q673 596 673 498Q673 363 630 242T509 55T337 -10T197 15L109 -113L72 -91L162 42ZM559 624Q523
650 457 650T340 610Q265 552 223 432T180 199Q180 132 200 98L559 624ZM232 66Q266 45 335 45T457 87Q530 145 569 261T609 495Q609 553 589 590L232 66Z" />
<glyph unicode="&#xd9;" glyph-name="Ugrave" horiz-adv-x="593" d="M393 925L568 830L542 787L364 875L393 925ZM176 139Q176 46 315 46Q399 46 441 84T503 206L616 695H678L565 205Q539 95 480 43T320 -10Q115 -10 115 132Q115 177 126 218L236 695H297L186
213Q176 173 176 139Z" />
<glyph unicode="&#xda;" glyph-name="Uacute" horiz-adv-x="593" d="M176 139Q176 46 315 46Q399 46 441 84T503 206L616 695H678L565 205Q539 95 480 43T320 -10Q115 -10 115 132Q115 177 126 218L236 695H297L186 213Q176 173 176 139ZM391 790L383 835L602
930L611 878L391 790Z" />
<glyph unicode="&#xdb;" glyph-name="Ucircumflex" horiz-adv-x="593" d="M176 139Q176 46 315 46Q399 46 441 84T503 206L616 695H678L565 205Q539 95 480 43T320 -10Q115 -10 115 132Q115 177 126 218L236 695H297L186 213Q176 173 176 139ZM329 797L490 931H520L617
797H561L500 883L395 797H329Z" />
<glyph unicode="&#xdc;" glyph-name="Udieresis" horiz-adv-x="593" d="M354 820L373 902H429L410 820H354ZM540 820L558 902H614L594 820H540ZM176 139Q176 46 315 46Q399 46 441 84T503 206L616 695H678L565 205Q539 95 480 43T320 -10Q115 -10 115 132Q115
177 126 218L236 695H297L186 213Q176 173 176 139Z" />
<glyph unicode="&#xdd;" glyph-name="Yacute" horiz-adv-x="490" d="M344 790L336 835L555 930L564 878L344 790ZM635 695L340 298L270 0H211L281 304L173 695H235L324 358L569 695H635Z" />
<glyph unicode="&#xde;" glyph-name="Thorn" horiz-adv-x="551" d="M356 183Q490 183 537 362Q546 397 546 424Q546 524 432 524L263 525L182 183H356ZM343 125H168L139 0H79L243 697H303L276 582H446Q548 582 583 521Q605 483 605 441T597 362Q573 254 509 190T343 125Z" />
<glyph unicode="&#xdf;" glyph-name="germandbls" horiz-adv-x="532" d="M408 732Q563 732 563 618Q563 511 466 464Q419 441 402 427T385 394T396 362T455 320T521 268T539 197Q539 102 481 46T317 -10Q271 -10 217 4L199 8L210 56Q275 43 316 43Q392 43 435
83T478 192Q478 223 463 241T402 287T340 335T324 389T345 446T416 495T484 546T502 611Q502 680 404 680Q336 680 302 645T248 524L125 0H68L193 531Q219 642 268 687T408 732Z" />
<glyph unicode="&#xe0;" glyph-name="agrave" horiz-adv-x="493" d="M216 -10Q91 -10 91 131Q91 262 154 380Q184 437 233 473T342 510Q396 510 501 492L536 486L460 161Q446 105 436 27L432 1L374 -1Q389 92 393 113Q389 108 383 100T357 70T317 33T269 4T216
-10ZM467 442Q395 457 340 457T239 402T174 275T153 145T171 65T227 43T307 78T378 148L406 184L467 442ZM335 734L511 640L483 599L306 687L335 734Z" />
<glyph unicode="&#xe1;" glyph-name="aacute" horiz-adv-x="493" d="M216 -10Q91 -10 91 131Q91 262 154 380Q184 437 233 473T342 510Q396 510 501 492L536 486L460 161Q446 105 436 27L432 1L374 -1Q389 92 393 113Q389 108 383 100T357 70T317 33T269 4T216
-10ZM467 442Q395 457 340 457T239 402T174 275T153 145T171 65T227 43T307 78T378 148L406 184L467 442ZM341 601L335 647L553 741L560 688L341 601Z" />
<glyph unicode="&#xe2;" glyph-name="acircumflex" horiz-adv-x="493" d="M248 590L399 735H441L528 590H466L412 682L315 590H248ZM216 -10Q91 -10 91 131Q91 262 154 380Q184 437 233 473T342 510Q396 510 501 492L536 486L460 161Q446 105 436 27L432 1L374
-1Q389 92 393 113Q389 108 383 100T357 70T317 33T269 4T216 -10ZM467 442Q395 457 340 457T239 402T174 275T153 145T171 65T227 43T307 78T378 148L406 184L467 442Z" />
<glyph unicode="&#xe3;" glyph-name="atilde" horiz-adv-x="493" d="M216 -10Q91 -10 91 131Q91 262 154 380Q184 437 233 473T342 510Q396 510 501 492L536 486L460 161Q446 105 436 27L432 1L374 -1Q389 92 393 113Q389 108 383 100T357 70T317 33T269 4T216
-10ZM467 442Q395 457 340 457T239 402T174 275T153 145T171 65T227 43T307 78T378 148L406 184L467 442ZM483 620Q464 620 416 644T357 669Q337 669 292 636L277 625L275 672Q335 722 369 722Q391 722 437 698T492 673Q510 673 553 704L567 714L571 668Q517 620
483 620Z" />
<glyph unicode="&#xe4;" glyph-name="adieresis" horiz-adv-x="493" d="M272 625L291 707H347L327 625H272ZM458 625L475 707H531L512 625H458ZM216 -10Q91 -10 91 131Q91 262 154 380Q184 437 233 473T342 510Q396 510 501 492L536 486L460 161Q446 105 436 27L432
1L374 -1Q389 92 393 113Q389 108 383 100T357 70T317 33T269 4T216 -10ZM467 442Q395 457 340 457T239 402T174 275T153 145T171 65T227 43T307 78T378 148L406 184L467 442Z" />
<glyph unicode="&#xe5;" glyph-name="aring" horiz-adv-x="493" d="M216 -10Q91 -10 91 131Q91 262 154 380Q184 437 233 473T342 510Q396 510 501 492L536 486L460 161Q446 105 436 27L432 1L374 -1Q389 92 393 113Q389 108 383 100T357 70T317 33T269 4T216
-10ZM467 442Q395 457 340 457T239 402T174 275T153 145T171 65T227 43T307 78T378 148L406 184L467 442ZM376 731Q407 759 446 759T501 740T517 690Q517 635 483 602T405 569T345 595Q334 612 334 631Q334 693 376 731ZM392 610T414 610T457 628T479 680Q479 689
470 702T440 716T396 699T374 647Q374 638 383 624Z" />
<glyph unicode="&#xe6;" glyph-name="ae" horiz-adv-x="757" d="M438 142Q438 47 522 47Q579 47 678 54L707 56L696 4Q592 -10 517 -10Q423 -10 392 46Q343 25 276 8T165 -10Q103 -10 80 34Q64 62 64 91Q64 198 127 244Q172 276 247 287T403 304Q419 352 419 384Q419
450 352 450Q303 450 202 442L173 439L182 496Q294 509 353 509Q466 509 476 428Q538 509 649 509Q788 509 791 374Q791 321 777 271L764 223L450 225Q438 174 438 142ZM127 110Q127 46 183 46Q253 46 378 90Q374 110 374 143T393 252Q283 241 241 235Q151 221
132 143Q127 126 127 110ZM732 360Q732 454 636 454Q569 454 526 412T461 276L719 274Q732 327 732 360Z" />
<glyph unicode="&#xe7;" glyph-name="ccedilla" horiz-adv-x="405" d="M240 -48Q323 -48 323 -102Q323 -112 320 -124Q301 -207 216 -207L138 -201L149 -157Q188 -161 216 -161Q258 -161 268 -122Q269 -116 269 -111Q269 -86 234 -86H190L209 -7Q95 11 95 137Q95
288 158 395Q190 448 241 479T358 510Q407 510 460 498L477 494L462 446Q400 457 356 457Q290 457 244 410Q156 322 156 147Q156 95 182 69T266 43Q301 43 360 55L379 59L376 11Q308 -10 248 -10H245L235 -48H240Z" />
<glyph unicode="&#xe8;" glyph-name="egrave" horiz-adv-x="458" d="M154 96T181 70T249 44Q326 44 396 62L420 69L416 20Q329 -10 250 -10Q93 -10 93 138Q93 274 158 387Q189 442 242 475T362 509Q503 509 503 395Q503 307 435 272T222 236H166Q154 186 154 141ZM234
285Q344 285 393 308T443 395T359 458Q228 458 175 285H234ZM257 734L433 640L405 599L228 687L257 734Z" />
<glyph unicode="&#xe9;" glyph-name="eacute" horiz-adv-x="458" d="M154 96T181 70T249 44Q326 44 396 62L420 69L416 20Q329 -10 250 -10Q93 -10 93 138Q93 274 158 387Q189 442 242 475T362 509Q503 509 503 395Q503 307 435 272T222 236H166Q154 186 154 141ZM234
285Q344 285 393 308T443 395T359 458Q228 458 175 285H234ZM305 601L299 647L517 741L524 688L305 601Z" />
<glyph unicode="&#xea;" glyph-name="ecircumflex" horiz-adv-x="458" d="M228 590L380 735H421L508 590H447L393 682L296 590H228ZM154 96T181 70T249 44Q326 44 396 62L420 69L416 20Q329 -10 250 -10Q93 -10 93 138Q93 274 158 387Q189 442 242 475T362 509Q503
509 503 395Q503 307 435 272T222 236H166Q154 186 154 141ZM234 285Q344 285 393 308T443 395T359 458Q228 458 175 285H234Z" />
<glyph unicode="&#xeb;" glyph-name="edieresis" horiz-adv-x="458" d="M263 625L282 707H338L319 625H263ZM449 625L467 707H523L503 625H449ZM154 96T181 70T249 44Q326 44 396 62L420 69L416 20Q329 -10 250 -10Q93 -10 93 138Q93 274 158 387Q189 442 242
475T362 509Q503 509 503 395Q503 307 435 272T222 236H166Q154 186 154 141ZM234 285Q344 285 393 308T443 395T359 458Q228 458 175 285H234Z" />
<glyph unicode="&#xec;" glyph-name="igrave" horiz-adv-x="197" d="M68 0L184 500H244L128 0H68ZM107 734L283 640L255 599L78 687L107 734Z" />
<glyph unicode="&#xed;" glyph-name="iacute" horiz-adv-x="197" d="M68 0L184 500H244L128 0H68ZM196 601L190 647L408 741L415 688L196 601Z" />
<glyph unicode="&#xee;" glyph-name="icircumflex" horiz-adv-x="197" d="M88 590L239 735H281L367 590H306L252 682L155 590H88ZM68 0L184 500H244L128 0H68Z" />
<glyph unicode="&#xef;" glyph-name="idieresis" horiz-adv-x="197" d="M107 625L126 707H182L162 625H107ZM293 625L310 707H366L347 625H293ZM68 0L184 500H244L128 0H68Z" />
<glyph unicode="&#xf0;" glyph-name="eth" horiz-adv-x="514" d="M558 445Q558 404 547 358Q501 165 429 78T247 -9Q157 -9 119 35T81 136Q81 146 82 156Q89 278 162 353T338 429Q370 429 408 420T470 400L493 390Q497 413 497 434Q497 541 399 607L280 533L256
572L354 633Q318 652 255 672L280 726Q359 707 417 673L525 741L548 701L459 645Q558 568 558 445ZM329 370Q254 370 202 310T147 160Q146 154 146 148Q146 106 172 79T261 51Q409 51 480 331Q464 343 412 356T329 370Z" />
<glyph unicode="&#xf1;" glyph-name="ntilde" horiz-adv-x="494" d="M373 456Q333 456 282 412Q262 396 242 375T216 345T205 331L128 0H68L184 500H242L221 403L244 430Q266 456 309 483T400 510T479 477T509 392T489 256L429 0H370L429 252Q448 333 448 377Q448
456 373 456ZM463 620Q444 620 396 644T337 669Q317 669 272 636L257 625L255 672Q315 722 349 722Q371 722 417 698T472 673Q490 673 533 704L547 714L551 668Q497 620 463 620Z" />
<glyph unicode="&#xf2;" glyph-name="ograve" horiz-adv-x="494" d="M345 509Q513 509 513 344Q513 196 443 93T258 -10Q94 -10 94 148Q94 297 165 403T345 509ZM258 43Q344 43 398 131T452 345Q452 396 425 426T345 457Q262 457 208 365T154 148Q154 43 258 43ZM284
734L460 640L432 599L255 687L284 734Z" />
<glyph unicode="&#xf3;" glyph-name="oacute" horiz-adv-x="494" d="M345 509Q513 509 513 344Q513 196 443 93T258 -10Q94 -10 94 148Q94 297 165 403T345 509ZM258 43Q344 43 398 131T452 345Q452 396 425 426T345 457Q262 457 208 365T154 148Q154 43 258 43ZM306
601L300 647L518 741L525 688L306 601Z" />
<glyph unicode="&#xf4;" glyph-name="ocircumflex" horiz-adv-x="494" d="M244 590L396 735H437L524 590H462L408 682L311 590H244ZM345 509Q513 509 513 344Q513 196 443 93T258 -10Q94 -10 94 148Q94 297 165 403T345 509ZM258 43Q344 43 398 131T452 345Q452
396 425 426T345 457Q262 457 208 365T154 148Q154 43 258 43Z" />
<glyph unicode="&#xf5;" glyph-name="otilde" horiz-adv-x="494" d="M345 509Q513 509 513 344Q513 196 443 93T258 -10Q94 -10 94 148Q94 297 165 403T345 509ZM258 43Q344 43 398 131T452 345Q452 396 425 426T345 457Q262 457 208 365T154 148Q154 43 258 43ZM450
620Q430 620 383 644T324 669Q304 669 259 636L244 625L242 672Q302 722 336 722Q358 722 404 698T460 673Q477 673 520 704L534 714L538 668Q484 620 450 620Z" />
<glyph unicode="&#xf6;" glyph-name="odieresis" horiz-adv-x="494" d="M345 509Q513 509 513 344Q513 196 443 93T258 -10Q94 -10 94 148Q94 297 165 403T345 509ZM258 43Q344 43 398 131T452 345Q452 396 425 426T345 457Q262 457 208 365T154 148Q154 43 258
43ZM271 625L290 707H339L320 625H271ZM450 625L468 707H517L498 625H450Z" />
<glyph unicode="&#xf7;" glyph-name="divide" horiz-adv-x="560" d="M155 263V322H521V263H155ZM266 335V425H410V335H266ZM307 33V126H368V33H307Z" />
<glyph unicode="&#xf8;" glyph-name="oslash" horiz-adv-x="493" d="M346 511Q394 511 432 495L499 604L537 588L465 475Q514 432 514 346Q514 198 444 95T259 -8Q208 -8 172 7L99 -112L61 -96L139 27Q95 66 95 150Q95 299 166 405T346 511ZM259 45Q345 45 399
133T453 347Q453 393 432 421L317 240L203 56Q224 45 259 45ZM346 459Q263 459 209 367T155 150Q155 106 173 81L285 258L402 447Q379 459 346 459Z" />
<glyph unicode="&#xf9;" glyph-name="ugrave" horiz-adv-x="494" d="M286 734L462 640L434 599L257 687L286 734ZM217 -10Q161 -10 131 23T100 108T120 244L180 500H239L180 248Q161 167 161 126Q161 44 236 44Q269 44 311 75T378 137L404 168L481 500H541L425
0H367L388 97Q338 30 270 2Q242 -10 217 -10Z" />
<glyph unicode="&#xfa;" glyph-name="uacute" horiz-adv-x="494" d="M217 -10Q161 -10 131 23T100 108T120 244L180 500H239L180 248Q161 167 161 126Q161 44 236 44Q269 44 311 75T378 137L404 168L481 500H541L425 0H367L388 97Q338 30 270 2Q242 -10 217 -10ZM319
601L313 647L531 741L538 688L319 601Z" />
<glyph unicode="&#xfb;" glyph-name="ucircumflex" horiz-adv-x="494" d="M225 590L377 735H418L505 590H444L390 682L293 590H225ZM217 -10Q161 -10 131 23T100 108T120 244L180 500H239L180 248Q161 167 161 126Q161 44 236 44Q269 44 311 75T378 137L404 168L481
500H541L425 0H367L388 97Q338 30 270 2Q242 -10 217 -10Z" />
<glyph unicode="&#xfc;" glyph-name="udieresis" horiz-adv-x="494" d="M256 625L275 707H331L312 625H256ZM442 625L460 707H516L496 625H442ZM217 -10Q161 -10 131 23T100 108T120 244L180 500H239L180 248Q161 167 161 126Q161 44 236 44Q269 44 311 75T378
137L404 168L481 500H541L425 0H367L388 97Q338 30 270 2Q242 -10 217 -10Z" />
<glyph unicode="&#xfd;" glyph-name="yacute" horiz-adv-x="452" d="M142 500H201L215 52H249L478 500H541L167 -224H106L224 0H159L142 500ZM293 601L287 647L505 741L512 688L293 601Z" />
<glyph unicode="&#xfe;" glyph-name="thorn" horiz-adv-x="480" d="M382 509Q431 509 461 485T498 426T506 371Q506 311 492 259Q454 119 393 55T228 -10Q178 -10 151 -6T124 0L71 -223H15L238 720H295L229 446Q316 509 382 509ZM434 259Q445 300 445 330T441
386T418 432T366 452T296 434T236 400L214 384L137 57L238 47Q315 47 359 97T434 259Z" />
<glyph unicode="&#xff;" glyph-name="ydieresis" horiz-adv-x="452" d="M235 625L254 707H310L291 625H235ZM421 625L439 707H495L475 625H421ZM142 500H201L215 52H249L478 500H541L167 -224H106L224 0H159L142 500Z" />
<glyph unicode="&#x2013;" glyph-name="endash" horiz-adv-x="611" d="M118 295H618V241H118V295Z" />
<glyph unicode="&#x2014;" glyph-name="emdash" horiz-adv-x="1111" d="M118 295H1118V241H118V295Z" />
<glyph unicode="&#x2018;" glyph-name="quoteleft" horiz-adv-x="182" d="M256 694H302L214 479H152L256 694Z" />
<glyph unicode="&#x2019;" glyph-name="quoteright" horiz-adv-x="182" d="M200 480H154L242 695H304L200 480Z" />
<glyph unicode="&#x201a;" glyph-name="quotesinglbase" horiz-adv-x="178" d="M44 -127H-2L86 88H148L44 -127Z" />
<glyph unicode="&#x201c;" glyph-name="quotedblleft" horiz-adv-x="332" d="M255 695H301L213 480H151L255 695ZM406 695H452L364 480H302L406 695Z" />
<glyph unicode="&#x201d;" glyph-name="quotedblright" horiz-adv-x="332" d="M200 480H154L242 695H304L200 480ZM350 480H304L392 695H454L350 480Z" />
<glyph unicode="&#x201e;" glyph-name="quotedblbase" horiz-adv-x="319" d="M243 88H289L201 -127H139L243 88ZM91 88H137L49 -127H-13L91 88Z" />
<glyph unicode="&#x2022;" glyph-name="bullet" horiz-adv-x="492" d="M179 107V395H429V107H179Z" />
<glyph unicode="&#x2039;" glyph-name="guilsinglleft" horiz-adv-x="262" d="M303 402L284 339L148 247L239 145L222 89L87 234L98 265L303 402Z" />
<glyph unicode="&#x203a;" glyph-name="guilsinglright" horiz-adv-x="262" d="M73 89L92 152L228 244L137 346L154 402L289 257L278 226L73 89Z" />
</font>
</defs>
</svg>
