<?xml version="1.0" standalone="no"?>
<!DOCTYPE svg PUBLIC "-//W3C//DTD SVG 1.1//EN" "http://www.w3.org/Graphics/SVG/1.1/DTD/svg11.dtd">
<svg xmlns="http://www.w3.org/2000/svg">
<defs >
<font id="TitilliumWeb" horiz-adv-x="539" ><font-face
    font-family="Titillium Web Black"
    units-per-em="1000"
    panose-1="0 0 10 0 0 0 0 0 0 0"
    ascent="1133"
    descent="-388"
    alphabetic="0" />
<glyph unicode=" " glyph-name="space" horiz-adv-x="215" />
<glyph unicode="!" glyph-name="exclam" horiz-adv-x="290" d="M31 0V198H259V0H31ZM38 244L24 670H266L252 244H38Z" />
<glyph unicode="&quot;" glyph-name="quotedbl" horiz-adv-x="544" d="M45 420L13 670H252L221 420H45ZM323 420L291 670H530L499 420H323Z" />
<glyph unicode="#" glyph-name="numbersign" horiz-adv-x="550" d="M57 0L60 113H5L12 290H65L67 370H12L19 547H71L75 670H251L247 547H309L313 670H490L486 547H544L537 370H482L480 290H536L532 113H475L472 0H295L298 113H236L233 0H57ZM243 370L241 290H303L305
370H243Z" />
<glyph unicode="$" glyph-name="dollar" horiz-adv-x="550" d="M520 468Q382 483 319 483T246 480T236 466T248 449T314 431T404 409T471 382T518 344Q548 299 548 213Q548 96 489 44T309 -12V-85H247V-12Q131 -6 43 16L12 23L21 196Q171 174 267 174Q296 174
307 179T318 196T307 211T243 223Q106 245 57 291T7 440Q7 567 66 617T247 669V751H309V669Q398 665 494 650L526 645L520 468Z" />
<glyph unicode="%" glyph-name="percent" horiz-adv-x="666" d="M228 -59L386 701L430 692L271 -67L228 -59ZM17 587T49 627T162 668T274 628T305 490T274 352T161 311T48 351T17 489ZM173 562T161 562T146 551T143 498T145 440T150 422T163 418T176 429T179 490T176
551ZM361 264T393 304T506 345T618 305T649 167T618 29T505 -12T392 28T361 166ZM517 239T505 239T490 228T487 175T489 117T494 99T507 95T520 106T523 167T520 228Z" />
<glyph unicode="&amp;" glyph-name="ampersand" horiz-adv-x="702" d="M337 683Q520 683 566 590Q585 554 585 492T559 398T440 342L499 291Q510 312 515 331L697 324Q672 227 639 168L704 112L658 -13L523 42Q434 -13 285 -13T71 31T6 190Q6 268 33 311T114 377Q87
418 87 500Q87 683 337 683ZM304 498Q304 465 329 440Q365 465 365 498Q365 543 335 543T304 498ZM308 168Q327 168 343 172L236 262Q232 249 232 229Q232 168 308 168Z" />
<glyph unicode="&apos;" glyph-name="quotesingle" horiz-adv-x="266" d="M45 420L13 670H252L221 420H45Z" />
<glyph unicode="(" glyph-name="parenleft" horiz-adv-x="326" d="M285 636T264 517T243 302T261 99T299 -66L318 -125H115Q52 -14 26 156Q16 228 16 322T41 529T90 696L115 750H318Q310 724 298 680Z" />
<glyph unicode=")" glyph-name="parenright" horiz-adv-x="326" d="M41 -6T62 113T83 328T65 531T27 696L8 755H211Q274 644 300 474Q310 402 310 308T285 101T236 -66L211 -120H8Q16 -94 28 -50Z" />
<glyph unicode="*" glyph-name="asterisk" horiz-adv-x="415" d="M390 469L289 476L327 381L202 340L176 438L98 373L20 480L105 534L19 588L97 696L174 631L199 730L326 689L288 595L390 603V469Z" />
<glyph unicode="+" glyph-name="plus" horiz-adv-x="550" d="M44 164V344H185V483H365V344H506V164H365V23H185V164H44Z" />
<glyph unicode="," glyph-name="comma" horiz-adv-x="289" d="M13 -103L35 193H277L198 -103H13Z" />
<glyph unicode="-" glyph-name="hyphen" horiz-adv-x="356" d="M29 161V342H327V161H29Z" />
<glyph unicode="." glyph-name="period" horiz-adv-x="282" d="M27 0V199H255V0H27Z" />
<glyph unicode="/" glyph-name="slash" horiz-adv-x="550" d="M15 -30L318 720L535 676L232 -74L15 -30Z" />
<glyph unicode="0" glyph-name="zero" horiz-adv-x="550" d="M13 511T72 591T276 672T478 593T535 331T478 68T274 -13T71 67T13 329ZM285 484T274 484T257 479T247 457Q240 427 240 330T246 204T274 175T301 203T308 307T307 411T301 457T291 479Z" />
<glyph unicode="1" glyph-name="one" horiz-adv-x="550" d="M467 659V0H240V416L102 361L42 523L276 659H467Z" />
<glyph unicode="2" glyph-name="two" horiz-adv-x="550" d="M501 0H43V172L130 256Q158 282 184 308Q184 308 226 350Q243 367 257 388T273 419T276 441Q276 467 261 474T208 481Q136 481 76 470L55 466L45 637Q149 674 262 674T440 623T505 480T475 336T363 227L296
180H501V0Z" />
<glyph unicode="3" glyph-name="three" horiz-adv-x="550" d="M225 672Q372 672 438 630T505 482Q505 427 492 398T444 345Q482 316 498 288T514 207Q514 82 449 35T248 -13Q165 -13 68 6L35 13L41 188Q156 178 205 178T270 183T286 207T275 233T233 243H92V420H224Q278
420 278 450T209 481Q162 481 71 474L45 472L40 643Q155 672 225 672Z" />
<glyph unicode="4" glyph-name="four" horiz-adv-x="550" d="M289 0V80H18V242L108 659H370L241 268H290L310 381L516 388V268H541V80H516V0H289Z" />
<glyph unicode="5" glyph-name="five" horiz-adv-x="550" d="M506 659V459H223L218 415Q261 430 307 430Q423 430 477 383T531 217Q531 -13 281 -13Q234 -13 168 -4T60 16L17 26L34 189Q169 169 259 169Q310 169 310 196T262 224Q230 224 194 215L182 212L34 230L48
659H506Z" />
<glyph unicode="6" glyph-name="six" horiz-adv-x="550" d="M306 489Q267 489 250 472T230 421L240 425Q275 439 313 439Q427 439 481 385T535 215T468 43T284 -13Q146 -13 81 71T16 323Q16 524 98 602Q137 640 185 656T283 672Q370 672 481 646L518 638L502 472Q390
489 306 489ZM286 262Q255 262 229 250Q229 204 240 185T284 165Q331 165 331 213T286 262Z" />
<glyph unicode="7" glyph-name="seven" horiz-adv-x="550" d="M49 449V659H501V438L325 -13L101 33L267 424V449H49Z" />
<glyph unicode="8" glyph-name="eight" horiz-adv-x="550" d="M274 672Q461 672 508 582Q526 546 526 488T511 395T450 335Q502 310 519 278T536 175Q536 -13 274 -13T12 177Q12 242 31 274T99 336Q56 362 40 395T24 494Q24 672 274 672ZM295 156T304 165T314
204T288 259H261Q234 237 234 197T274 156Q295 156 304 165ZM255 505T249 494T242 458T261 410H288Q307 430 307 460Q307 505 273 505Q255 505 249 494Z" />
<glyph unicode="9" glyph-name="nine" horiz-adv-x="550" d="M243 170Q282 170 299 187T319 238L309 234Q274 220 236 220Q122 220 68 274T14 444T81 616T265 672Q403 672 468 588T533 336Q533 135 452 57Q412 19 364 3T266 -13Q179 -13 68 12L31 21L47 187Q159
170 243 170ZM263 397Q294 397 320 409Q320 455 309 474T265 494Q218 494 218 446T263 397Z" />
<glyph unicode=":" glyph-name="colon" horiz-adv-x="288" d="M30 0V199H258V0H30ZM30 265V464H258V265H30Z" />
<glyph unicode=";" glyph-name="semicolon" horiz-adv-x="294" d="M13 -103L35 193H277L198 -103H13ZM38 265V464H266V265H38Z" />
<glyph unicode="&lt;" glyph-name="less" horiz-adv-x="550" d="M462 293L223 261L462 218V-13L76 145V366L462 517V293Z" />
<glyph unicode="=" glyph-name="equal" horiz-adv-x="550" d="M59 282V452H491V282H59ZM59 57V227H491V57H59Z" />
<glyph unicode="&gt;" glyph-name="greater" horiz-adv-x="550" d="M326 261L87 293V517L473 366V145L87 -13V218L326 261Z" />
<glyph unicode="?" glyph-name="question" horiz-adv-x="473" d="M456 496Q456 422 438 388T368 317Q291 262 289 236L288 217H113Q90 248 90 290T106 355T167 412T221 456T230 486T216 514T170 523Q108 523 45 512L24 509L17 666Q130 703 240 703T403 656T456
496ZM88 0V180H316V0H88Z" />
<glyph unicode="@" glyph-name="at" horiz-adv-x="1027" d="M1008 315V298Q1008 126 959 63T783 0T601 53Q531 0 448 0Q337 0 288 58T239 245Q239 505 423 505Q454 505 483 496T527 476L541 467V492H765V300Q765 221 774 195T805 168T834 192T841 298V316Q841
397 826 447T771 526T675 566T536 577T403 570T307 543T236 488Q180 413 180 261Q180 116 210 50Q228 13 252 -9T316 -44Q383 -67 517 -67L660 -57L663 -210Q565 -219 517 -219Q370 -219 275 -193T124 -107T46 41T23 260T56 485T157 630T314 706T527 729Q776 729
892 634T1008 315ZM465 209T472 194T499 178T546 189Q541 223 541 279V320Q526 324 506 324T475 310T465 252Z" />
<glyph unicode="A" glyph-name="A" horiz-adv-x="639" d="M-5 0L143 670H494L645 0H411L392 77H239L223 0H-5ZM307 488L269 254H368L332 488H307Z" />
<glyph unicode="B" glyph-name="B" horiz-adv-x="607" d="M30 670H333Q578 670 578 504Q578 441 565 407T509 343Q558 322 576 292T595 190Q595 0 337 0H30V670ZM316 265H262V155H316Q351 155 363 166T375 209T362 253T316 265ZM313 517H262V410H314Q344 410 356
423T368 464T355 505T313 517Z" />
<glyph unicode="C" glyph-name="C" horiz-adv-x="533" d="M519 13Q413 -13 302 -13T131 18T45 124T18 337Q18 536 79 609T314 683Q386 683 484 663L519 656L513 477Q431 487 362 487T272 461T252 351T261 236T292 194T360 183L516 189L519 13Z" />
<glyph unicode="D" glyph-name="D" horiz-adv-x="654" d="M323 0H30V670H313Q486 670 562 592T638 343T565 86T323 0ZM404 421T386 451T303 481H262V189H303Q355 189 380 215Q404 241 404 331Z" />
<glyph unicode="E" glyph-name="E" horiz-adv-x="549" d="M30 0V670H532V485H262V428H472V245H262V185H532V0H30Z" />
<glyph unicode="F" glyph-name="F" horiz-adv-x="521" d="M30 0V670H513V481H262V373H453V184H262V0H30Z" />
<glyph unicode="G" glyph-name="G" horiz-adv-x="619" d="M592 394V20Q411 -9 324 -9T176 10T79 75T31 181T17 336Q17 529 89 606T332 683Q383 683 447 675T549 658L587 649V474Q443 487 383 487T304 482T274 469T258 439Q251 408 251 330T269 217T342 181L376
182V232H346L345 394H592Z" />
<glyph unicode="H" glyph-name="H" horiz-adv-x="655" d="M393 0V234H262V0H30V670H262V423H393V670H625V0H393Z" />
<glyph unicode="I" glyph-name="I" horiz-adv-x="292" d="M30 0V670H262V0H30Z" />
<glyph unicode="J" glyph-name="J" horiz-adv-x="321" d="M294 670V177Q294 79 246 33Q209 -4 112 -10Q75 -13 15 -13V178Q28 178 34 178T46 184T55 197T59 222Q62 250 62 322V670H294Z" />
<glyph unicode="K" glyph-name="K" horiz-adv-x="609" d="M262 223V0H30V670H262V433H302L377 670H607L500 346L617 0H384L303 223H262Z" />
<glyph unicode="L" glyph-name="L" horiz-adv-x="489" d="M480 0H30V670H262V189H480V0Z" />
<glyph unicode="M" glyph-name="M" horiz-adv-x="855" d="M30 0V670H375L427 414L470 670H825V0H593V345H582L524 7H330L273 345H262V0H30Z" />
<glyph unicode="N" glyph-name="N" horiz-adv-x="688" d="M30 0V670H258L412 416H426V670H658V0H429L277 273H262V0H30Z" />
<glyph unicode="O" glyph-name="O" horiz-adv-x="670" d="M250 250T266 213T335 175T404 212T420 335T405 458T336 495T267 458T250 335ZM654 152T578 70T336 -13T93 70T16 335T92 600T335 683T578 601T654 335Z" />
<glyph unicode="P" glyph-name="P" horiz-adv-x="612" d="M293 142H262V0H30V670H293Q452 670 524 615T597 409T524 200T293 142ZM262 325H283Q326 325 344 344T363 409T346 471T283 487H262V325Z" />
<glyph unicode="Q" glyph-name="Q" horiz-adv-x="667" d="M332 -13Q165 -13 91 68T16 335T89 601T332 683T576 602T651 324T555 48L635 -71L459 -158L361 -12Q352 -13 332 -13ZM244 252T262 214T332 175T400 213T417 335T401 457T333 495T263 457T244 335Z" />
<glyph unicode="R" glyph-name="R" horiz-adv-x="617" d="M319 173H262V0H30V670H312Q467 670 534 619T601 428T527 228L593 0H357L319 173ZM318 356Q367 356 367 421T312 487H261V356H318Z" />
<glyph unicode="S" glyph-name="S" horiz-adv-x="578" d="M540 477Q399 492 335 492T261 489T250 474T262 457T337 437T441 410T514 372T557 312T568 216Q568 92 502 39T303 -14Q239 -14 169 -5T60 13L21 22L31 199Q184 177 282 177Q334 177 334 200Q334 210 322
214T257 227Q117 249 67 295T16 448Q16 583 81 633T281 683Q376 683 504 664L546 657L540 477Z" />
<glyph unicode="T" glyph-name="T" horiz-adv-x="519" d="M9 481V670H509V481H379V0H147V481H9Z" />
<glyph unicode="U" glyph-name="U" horiz-adv-x="641" d="M258 670V231Q258 202 272 190T321 178T369 190T383 231V670H615V244Q615 102 544 45T321 -13T97 43T26 240V670H258Z" />
<glyph unicode="V" glyph-name="V" horiz-adv-x="598" d="M602 670L471 0H129L-7 670H239L291 234H309L356 670H602Z" />
<glyph unicode="W" glyph-name="W" horiz-adv-x="915" d="M85 0L6 670H237L269 234H287L332 660H585L635 234H653L673 670H906L832 0H493L460 412L450 413L416 0H85Z" />
<glyph unicode="X" glyph-name="X" horiz-adv-x="583" d="M228 670L289 486L367 670H595L450 351L586 0H348L289 178L228 0H-8L135 321L-8 670H228Z" />
<glyph unicode="Y" glyph-name="Y" horiz-adv-x="590" d="M410 0H178V210L-13 670H233L296 473L361 670H606L410 210V0Z" />
<glyph unicode="Z" glyph-name="Z" horiz-adv-x="569" d="M19 481V670H549V481L332 206V189H549V0H19V180L241 464V481H19Z" />
<glyph unicode="[" glyph-name="bracketleft" horiz-adv-x="341" d="M322 749V568H258V58H322V-123H33V749H322Z" />
<glyph unicode="\" glyph-name="backslash" horiz-adv-x="550" d="M232 720L535 -30L318 -74L15 676L232 720Z" />
<glyph unicode="]" glyph-name="bracketright" horiz-adv-x="339" d="M17 568V749H306V-123H17V58H81V568H17Z" />
<glyph unicode="^" glyph-name="asciicircum" horiz-adv-x="633" d="M378 313L319 530L256 313H46L190 670H444L588 313H378Z" />
<glyph unicode="_" glyph-name="underscore" horiz-adv-x="600" d="M40 -185V-58H560V-185H40Z" />
<glyph unicode="`" glyph-name="grave" horiz-adv-x="423" d="M78 723H315L358 557H187L78 723Z" />
<glyph unicode="a" glyph-name="a" horiz-adv-x="557" d="M518 342V152Q527 145 542 141L539 -1Q461 -13 432 -13T379 -5T347 13L339 22Q277 -13 189 -13T55 27T10 158T61 278T222 313L294 316V325Q294 344 252 344Q161 344 70 334L37 331L32 483Q164 518 273
518Q387 518 450 484Q518 448 518 342ZM256 141Q275 141 294 156V193L260 191Q234 189 234 165T256 141Z" />
<glyph unicode="b" glyph-name="b" horiz-adv-x="569" d="M355 518Q553 518 553 261Q553 107 494 47T279 -13Q215 -13 72 4L27 10V690H251V502Q317 518 355 518ZM283 168Q327 168 327 256Q327 303 317 320T283 337L251 330V171Q264 168 283 168Z" />
<glyph unicode="c" glyph-name="c" horiz-adv-x="465" d="M266 518Q335 518 419 498L447 492L440 315Q337 323 302 323T255 308T242 253T254 198T299 183L442 190L449 15Q353 -13 266 -13Q122 -13 69 46T16 254T73 460T266 518Z" />
<glyph unicode="d" glyph-name="d" horiz-adv-x="570" d="M542 690V0H321L319 22Q264 -13 214 -13Q104 -13 60 54T16 252Q16 518 237 518L318 512V690H542ZM286 337Q259 337 251 315T242 253T251 190T287 168L318 171V334Q296 337 286 337Z" />
<glyph unicode="e" glyph-name="e" horiz-adv-x="552" d="M239 187Q240 152 284 152Q384 152 484 158L523 161L528 16Q395 -13 264 -13T74 47T15 243T78 448T274 518T473 461T538 286L528 187H239ZM314 309Q314 338 306 350T276 362T247 350T238 309H314Z" />
<glyph unicode="f" glyph-name="f" horiz-adv-x="358" d="M269 324V0H45V324H18V505H45V509Q45 617 81 660T217 703Q266 703 332 693L351 690V528Q269 528 269 515V505H349V324H269Z" />
<glyph unicode="g" glyph-name="g" horiz-adv-x="562" d="M92 -196Q12 -170 12 -81Q12 -45 26 -17T76 39Q40 64 40 114Q40 125 54 143T84 174L98 187Q17 225 17 331T74 477T265 518Q298 518 352 510L368 507L553 510V379H506Q515 354 515 338Q515 230 460 194T273
157Q253 157 235 160Q231 154 231 148Q231 138 349 138T508 103T550 -24T482 -168T288 -220T92 -196ZM195 -53Q195 -66 271 -66T347 -50Q347 -40 334 -38T281 -35L204 -31Q195 -36 195 -53ZM245 303T266 303T296 311T305 339T296 367T266 375T236 367T227 339T236
311Z" />
<glyph unicode="h" glyph-name="h" horiz-adv-x="578" d="M252 0H28V690H252V501Q322 518 359 518Q468 518 511 461T555 261V0H331V238Q331 325 293 325L252 319V0Z" />
<glyph unicode="i" glyph-name="i" horiz-adv-x="280" d="M28 0V505H252V0H28ZM27 537V690H253V537H27Z" />
<glyph unicode="j" glyph-name="j" horiz-adv-x="280" d="M27 538V690H253V538H27ZM28 66V505H252V73Q252 -32 237 -70T207 -126T161 -162Q113 -188 11 -220L-61 -50Q1 -21 14 -4T28 66Z" />
<glyph unicode="k" glyph-name="k" horiz-adv-x="553" d="M252 0H28V690H252V343H281L326 505H547L475 261L553 0H329L282 148H252V0Z" />
<glyph unicode="l" glyph-name="l" horiz-adv-x="280" d="M28 0V690H252V0H28Z" />
<glyph unicode="m" glyph-name="m" horiz-adv-x="861" d="M252 0H28V505H251V479Q317 518 380 518T485 473Q556 518 635 518Q752 518 795 456T838 255V0H614V228Q614 325 581 325L538 319Q545 298 545 232V0H321V228Q321 325 289 325L252 320V0Z" />
<glyph unicode="n" glyph-name="n" horiz-adv-x="578" d="M252 0H28V505H251V479Q314 518 361 518Q469 518 512 460T555 253V0H331V238Q331 325 295 325L252 318V0Z" />
<glyph unicode="o" glyph-name="o" horiz-adv-x="564" d="M148 518T282 518T482 456T549 252T483 49T282 -13T82 49T15 252T81 455ZM259 168T282 168T314 186T323 252T314 319T282 337T250 319T241 253T250 186Z" />
<glyph unicode="p" glyph-name="p" horiz-adv-x="570" d="M356 518Q462 518 508 450T554 248T504 50T334 -13Q310 -13 266 -3L252 0V-195H28V505H249L251 479Q300 518 356 518ZM284 168Q328 168 328 256Q328 303 318 320T284 337L252 330V171Q265 168 284 168Z" />
<glyph unicode="q" glyph-name="q" horiz-adv-x="570" d="M214 -13Q16 -13 16 245Q16 395 80 457T290 519Q351 519 497 506L542 502V-194H318V4Q252 -13 214 -13ZM286 338Q242 338 242 250Q242 203 252 186T286 169L318 175V335Q305 338 286 338Z" />
<glyph unicode="r" glyph-name="r" horiz-adv-x="368" d="M252 0H28V505H252V458Q315 518 358 518V310Q324 310 270 283L252 274V0Z" />
<glyph unicode="s" glyph-name="s" horiz-adv-x="489" d="M457 335Q333 349 288 349T243 341Q243 335 321 327T436 282T472 157T418 28T250 -13Q187 -13 130 -7T48 7L22 14L27 165Q151 148 199 148T248 157Q248 162 169 172T55 219T19 334Q19 436 77 477T243 518Q357
518 438 498L465 492L457 335Z" />
<glyph unicode="t" glyph-name="t" horiz-adv-x="371" d="M273 324V220Q273 195 279 187T306 178L351 179L354 5Q268 -13 222 -13Q129 -13 89 25T49 168V324H10V505H49V605H273V505H354V324H273Z" />
<glyph unicode="u" glyph-name="u" horiz-adv-x="577" d="M325 505H549V0H327V24Q263 -13 213 -13Q107 -13 65 48T23 244V505H247V259Q247 214 255 197T281 180L325 186V505Z" />
<glyph unicode="v" glyph-name="v" horiz-adv-x="547" d="M1 505H239L275 187H288L322 505H546L461 0H86L1 505Z" />
<glyph unicode="w" glyph-name="w" horiz-adv-x="792" d="M10 505H257L267 187H279L302 492H505L537 187H549L560 505H781L730 0H411L394 218L375 0H70L10 505Z" />
<glyph unicode="x" glyph-name="x" horiz-adv-x="538" d="M98 250L-1 505H239L279 363L319 505H539L450 254L536 0H294L254 127L221 0H-1L98 250Z" />
<glyph unicode="y" glyph-name="y" horiz-adv-x="546" d="M86 0L1 505H239L275 187H289L321 505H546L427 -195H181L244 0H86Z" />
<glyph unicode="z" glyph-name="z" horiz-adv-x="500" d="M24 310V505H475V332L322 195H478V0H24V183L172 310H24Z" />
<glyph unicode="{" glyph-name="braceleft" horiz-adv-x="361" d="M273 518L276 437Q276 386 265 363T220 321Q252 303 264 280T276 211L273 113Q273 75 286 63T344 46V-134Q227 -134 175 -121T98 -90Q46 -48 46 38Q46 59 52 119T59 190Q59 221 15 230V399Q59
407 59 433L46 586Q46 668 84 704Q126 742 188 752Q253 761 344 761V581Q298 577 286 566T273 518Z" />
<glyph unicode="|" glyph-name="bar" horiz-adv-x="286" d="M34 -220V703H252V-220H34Z" />
<glyph unicode="}" glyph-name="braceright" horiz-adv-x="359" d="M86 105L83 186Q83 238 94 261T139 302Q107 320 95 343T83 412L86 510Q86 548 73 560T15 577V757Q132 757 184 744T260 712Q313 671 313 585Q313 564 307 504T300 433Q300 402 344 393V224Q300
216 300 190L313 37Q313 -45 275 -80Q233 -119 170 -128Q106 -138 15 -138V42Q61 46 73 57T86 105Z" />
<glyph unicode="~" glyph-name="asciitilde" horiz-adv-x="550" d="M401 136T372 136T270 158T178 180T132 170T88 150L71 140L61 312Q82 333 119 349T185 365T283 343T374 321Q413 321 462 350L479 360L487 189Q470 169 436 153Z" />
<glyph unicode="&#xa0;" glyph-name="uni00A0" horiz-adv-x="215" />
<glyph unicode="&#xa1;" glyph-name="exclamdown" horiz-adv-x="290" d="M259 505V307H31V505H259ZM252 261L266 -165H24L38 261H252Z" />
<glyph unicode="&#xa2;" glyph-name="cent" horiz-adv-x="550" d="M248 -86V42Q133 45 87 93T41 255T90 416T248 466V591H308V465Q395 463 476 450L500 446L494 296Q392 300 311 300Q284 300 274 289T263 254T273 219T311 208L496 212L502 64Q419 47 308 43V-86H248Z" />
<glyph unicode="&#xa3;" glyph-name="sterling" horiz-adv-x="550" d="M95 183V326H33V386H95V427Q95 502 107 549T147 623T216 660T306 670Q396 670 470 654L497 649L491 483Q420 487 377 487T315 472T296 414V386H433V326H296V183H389L507 198L525 16L404 0H33V183H95Z" />
<glyph unicode="&#xa4;" glyph-name="currency" horiz-adv-x="550" d="M138 438Q196 483 272 483T409 435L468 495L511 452L451 393Q496 334 496 259T451 125L511 66L468 23L409 82Q349 35 273 35T138 79L82 23L39 66L95 121Q48 181 48 258T95 396L39 452L82 495L138
438ZM232 168T271 168T336 194T363 259T336 323Q310 350 271 350T207 323Q181 298 181 259T206 194Z" />
<glyph unicode="&#xa5;" glyph-name="yen" horiz-adv-x="581" d="M48 299V359H128L16 657H252L289 450L330 657H566L448 359H528V299H424L400 237V207H528V147H400V0H174V147H48V207H174V237L150 299H48Z" />
<glyph unicode="&#xa6;" glyph-name="brokenbar" horiz-adv-x="284" d="M33 703H251V308H33V703ZM33 170H251V-220H33V170Z" />
<glyph unicode="&#xa7;" glyph-name="section" horiz-adv-x="595" d="M546 469Q376 489 331 489T271 484T256 464T274 441T358 420Q483 395 528 363T573 248T528 121Q548 98 555 77T563 11Q563 -195 316 -195Q256 -195 186 -183T76 -157L37 -144L54 16Q62 13 156
-1T286 -15Q340 -15 340 13Q340 26 318 33T200 60T63 113T22 217T65 340Q36 373 33 410Q32 423 32 449Q32 573 97 621T281 670Q329 670 397 660T508 640L552 629L546 469ZM253 280Q242 262 242 247T249 227T303 208T353 192Q362 211 362 233T301 267Q265 275 253
280Z" />
<glyph unicode="&#xa8;" glyph-name="dieresis" horiz-adv-x="418" d="M234 559V713H398V559H234ZM24 559V713H188V559H24Z" />
<glyph unicode="&#xa9;" glyph-name="copyright" horiz-adv-x="597" d="M180 150T102 232T23 435T101 637T300 718T498 636T574 433T498 231T301 150ZM85 527T85 434T146 276T298 210T451 275T512 433T451 592T298 658T146 593ZM238 269T209 305T179 435T209 563T311
598Q339 598 369 590L391 583L384 497L362 500Q323 503 317 503Q297 503 290 490T282 439Q282 364 317 364Q336 364 362 366L384 369L391 287L370 278Q343 269 307 269Q238 269 209 305Z" />
<glyph unicode="&#xaa;" glyph-name="ordfeminine" horiz-adv-x="351" d="M274 379Q237 379 207 398Q171 379 126 379Q16 379 16 471Q16 520 47 536T141 555L188 557V562Q188 572 164 572L31 565L29 647Q100 666 174 666T283 644T318 571V468Q322 465 334 463L332
385Q288 379 274 379ZM147 474Q147 463 162 463T188 471V491L170 490Q147 489 147 474Z" />
<glyph unicode="&#xab;" glyph-name="guillemotleft" horiz-adv-x="624" d="M335 422L221 253L335 84L173 10L14 240V261L175 496L335 422ZM605 422L491 253L605 84L443 10L284 240V261L445 496L605 422Z" />
<glyph unicode="&#xac;" glyph-name="logicalnot" horiz-adv-x="550" d="M537 543V231H386V392H1V543H537Z" />
<glyph unicode="&#xae;" glyph-name="registered" horiz-adv-x="597" d="M180 150T102 231T23 435T101 637T300 718T497 636T574 432T498 231T301 150ZM85 526T85 434T147 276T299 210T451 275T512 433T451 592T299 658T147 592ZM274 276H178V591H314Q366 591
397 566T428 494T420 426T390 386L431 276H331L303 369H274V276ZM273 519V440H301Q335 440 335 479T300 519H273Z" />
<glyph unicode="&#xaf;" glyph-name="overscore" horiz-adv-x="443" d="M60 563V707H387V563H60Z" />
<glyph unicode="&#xb0;" glyph-name="degree" horiz-adv-x="550" d="M125 473T125 540T166 648T275 690T383 649T425 540T384 432T275 391T167 432ZM259 577T250 567T240 541T249 514T275 504T301 514T312 540T302 566T276 577Z" />
<glyph unicode="&#xb1;" glyph-name="plusminus" horiz-adv-x="550" d="M44 251V421H185V505H365V421H506V251H365V180H185V251H44ZM44 170H506V0H44V170Z" />
<glyph unicode="&#xb2;" glyph-name="twosuperior" horiz-adv-x="350" d="M301 273H43V385L98 435Q110 447 127 463T152 486T168 503Q182 520 182 537Q182 560 136 560L51 555L45 658Q111 674 176 674Q308 674 308 555Q308 528 304 518L299 501Q297 495 291 486T281
473T268 458Q268 458 252 442Q227 417 213 405L193 390H301V273Z" />
<glyph unicode="&#xb3;" glyph-name="threesuperior" horiz-adv-x="350" d="M148 422H66V524H143Q174 524 174 542T134 560L39 555L36 654Q111 670 151 670Q237 670 275 646T314 560Q314 529 306 512T278 481Q300 464 309 448T319 401Q319 329 282 301T165 273Q117
273 54 285L33 289L36 390Q103 384 128 384T160 385Q179 387 179 403T148 422Z" />
<glyph unicode="&#xb4;" glyph-name="acute" horiz-adv-x="833" d="M219 723H456L347 557H176L219 723Z" />
<glyph unicode="&#xb5;" glyph-name="mu" horiz-adv-x="550" d="M315 505H539V0H317L316 22Q287 3 245 0V-248H21V505H245V259Q245 213 250 197T271 180L315 186V505Z" />
<glyph unicode="&#xb6;" glyph-name="paragraph" horiz-adv-x="578" d="M557 511H487V0H259V210H252Q153 210 85 281T16 454T85 628T254 700H557V511Z" />
<glyph unicode="&#xb7;" glyph-name="middot" horiz-adv-x="265" d="M30 149V349H235V149H30Z" />
<glyph unicode="&#xb8;" glyph-name="cedilla" horiz-adv-x="833" d="M555 -34T584 -51T614 -124T583 -205T487 -231Q422 -231 377 -223L360 -220L364 -142Q395 -143 412 -143Q450 -143 450 -121Q450 -109 442 -105T412 -101H403V11H476V-33Q555 -34 584 -51Z" />
<glyph unicode="&#xb9;" glyph-name="onesuperior" horiz-adv-x="350" d="M297 670V273H140V494L57 460L21 588L162 670H297Z" />
<glyph unicode="&#xba;" glyph-name="ordmasculine" horiz-adv-x="353" d="M91 666T177 666T300 633T338 523T301 412T177 379T53 412T15 522T53 633ZM177 479Q193 479 200 489T207 523T200 556T177 566T153 557T146 523Q146 479 177 479Z" />
<glyph unicode="&#xbb;" glyph-name="guillemotright" horiz-adv-x="624" d="M19 84L133 253L19 422L181 496L340 266V245L179 10L19 84ZM289 84L403 253L289 422L451 496L610 266V245L449 10L289 84Z" />
<glyph unicode="&#xbc;" glyph-name="onequarter" horiz-adv-x="968" d="M297 670V273H140V494L57 460L21 588L162 670H297ZM258 5L561 755L708 691L405 -59L258 5ZM760 0V48H597V146L651 397H809L731 161H760V216L907 234V161H922V48H907V0H760Z" />
<glyph unicode="&#xbd;" glyph-name="onehalf" horiz-adv-x="959" d="M258 5L561 755L708 691L405 -59L258 5ZM297 670V273H140V494L57 460L21 588L162 670H297ZM903 0H645V112L700 162Q712 174 729 190T754 213T770 230Q784 248 784 264Q784 287 738 287L653
282L647 385Q713 401 778 401Q910 401 910 282Q910 255 906 244L901 228Q899 222 893 213T883 200T870 184Q870 184 854 170Q829 144 815 132L795 117H903V0Z" />
<glyph unicode="&#xbe;" glyph-name="threequarters" horiz-adv-x="1650" d="M760 0V48H597V146L651 397H809L731 161H760V216L907 234V161H922V48H907V0H760ZM258 5L561 755L708 691L405 -59L258 5ZM158 422H76V524H153Q184 524 184 542T144 560L49 555L46 654Q121
670 161 670Q247 670 285 646T324 560Q324 529 316 512T288 481Q310 464 319 448T329 401Q329 329 292 301T175 273Q127 273 64 285L43 289L46 390Q113 384 138 384T170 385Q189 387 189 403T158 422Z" />
<glyph unicode="&#xbf;" glyph-name="questiondown" horiz-adv-x="471" d="M16 9Q16 83 34 117T104 188Q181 243 183 269L184 288H359Q382 257 382 215T366 150T305 93T251 49T242 19T256 -9T302 -18Q364 -18 427 -8L448 -4L455 -161Q342 -198 232 -198T69 -151T16
9ZM384 505V325H156V505H384Z" />
<glyph unicode="&#xc0;" glyph-name="Agrave" horiz-adv-x="639" d="M147 849H389L423 713H251L147 849ZM-5 0L143 670H494L645 0H411L392 77H239L223 0H-5ZM307 488L269 254H368L332 488H307Z" />
<glyph unicode="&#xc1;" glyph-name="Aacute" horiz-adv-x="639" d="M-5 0L143 670H494L645 0H411L392 77H239L223 0H-5ZM307 488L269 254H368L332 488H307ZM227 849H469L360 713H184L227 849Z" />
<glyph unicode="&#xc2;" glyph-name="Acircumflex" horiz-adv-x="639" d="M-5 0L143 670H494L645 0H411L392 77H239L223 0H-5ZM307 488L269 254H368L332 488H307ZM138 713L239 849H391L503 713H334L319 775L307 713H138Z" />
<glyph unicode="&#xc3;" glyph-name="Atilde" horiz-adv-x="639" d="M-5 0L143 670H494L645 0H411L392 77H239L223 0H-5ZM307 488L269 254H368L332 488H307ZM475 744T447 728T393 712T314 729T247 746Q220 746 180 728L166 721L137 827Q154 847 187 866T249 886T330
870T392 854Q412 854 458 872L473 877L502 770Q496 764 486 754Z" />
<glyph unicode="&#xc4;" glyph-name="Adieresis" horiz-adv-x="639" d="M-5 0L143 670H494L645 0H411L392 77H239L223 0H-5ZM307 488L269 254H368L332 488H307ZM343 713V857H504V713H343ZM136 713V857H297V713H136Z" />
<glyph unicode="&#xc5;" glyph-name="Aring" horiz-adv-x="639" d="M183 722Q183 818 320 818Q382 818 419 795T457 722Q457 692 441 670H494L645 0H411L392 77H239L223 0H-5L143 670H198Q183 689 183 722ZM307 488L269 254H368L332 488H307ZM290 743T290 722T320
700T351 721T321 743Z" />
<glyph unicode="&#xc6;" glyph-name="AE" horiz-adv-x="882" d="M366 0V77H239L223 0H-5L143 670H865V485H592V425H805V248H592V185H865V0H366ZM366 256V485H307L270 256H366Z" />
<glyph unicode="&#xc7;" glyph-name="Ccedilla" horiz-adv-x="533" d="M409 -23T438 -40T468 -113T437 -194T341 -220Q289 -220 231 -212L214 -209L218 -131Q249 -132 266 -132Q304 -132 304 -110Q304 -98 296 -94T266 -90H257V-11Q120 -3 69 72T18 341T79 609T314
683Q386 683 484 663L519 656L513 477Q431 487 362 487T272 461T252 351T261 236T292 194T360 183L516 189L519 13Q429 -9 330 -12V-22Q409 -23 438 -40Z" />
<glyph unicode="&#xc8;" glyph-name="Egrave" horiz-adv-x="549" d="M30 0V670H532V485H262V428H472V245H262V185H532V0H30ZM113 849H355L389 713H217L113 849Z" />
<glyph unicode="&#xc9;" glyph-name="Eacute" horiz-adv-x="549" d="M30 0V670H532V485H262V428H472V245H262V185H532V0H30ZM188 849H430L321 713H145L188 849Z" />
<glyph unicode="&#xca;" glyph-name="Ecircumflex" horiz-adv-x="549" d="M30 0V670H532V485H262V428H472V245H262V185H532V0H30ZM94 713L195 849H347L459 713H290L275 775L263 713H94Z" />
<glyph unicode="&#xcb;" glyph-name="Edieresis" horiz-adv-x="549" d="M30 0V670H532V485H262V428H472V245H262V185H532V0H30ZM304 713V857H465V713H304ZM97 713V857H258V713H97Z" />
<glyph unicode="&#xcc;" glyph-name="Igrave" horiz-adv-x="286" d="M30 0V670H256V0H30ZM-30 849H212L246 713H74L-30 849Z" />
<glyph unicode="&#xcd;" glyph-name="Iacute" horiz-adv-x="292" d="M30 0V670H262V0H30ZM83 849H325L216 713H40L83 849Z" />
<glyph unicode="&#xce;" glyph-name="Icircumflex" horiz-adv-x="286" d="M30 0V670H256V0H30ZM-39 713L62 849H214L326 713H157L142 775L130 713H-39Z" />
<glyph unicode="&#xcf;" glyph-name="Idieresis" horiz-adv-x="292" d="M30 0V670H262V0H30ZM169 713V857H330V713H169ZM-38 713V857H123V713H-38Z" />
<glyph unicode="&#xd0;" glyph-name="Eth" horiz-adv-x="661" d="M-1 270V407H37V670H320Q493 670 569 592T645 343T572 86T330 0H37V270H-1ZM411 421T393 451T310 481H269V407H324V270H269V189H310Q362 189 386 215Q411 241 411 331Z" />
<glyph unicode="&#xd1;" glyph-name="Ntilde" horiz-adv-x="688" d="M30 0V670H258L412 416H426V670H658V0H429L277 273H262V0H30ZM499 744T471 728T417 712T338 729T271 746Q244 746 204 728L190 721L161 827Q178 847 211 866T273 886T354 870T416 854Q436 854
482 872L497 877L526 770Q520 764 510 754Z" />
<glyph unicode="&#xd2;" glyph-name="Ograve" horiz-adv-x="670" d="M250 250T266 213T335 175T404 212T420 335T405 458T336 495T267 458T250 335ZM654 152T578 70T336 -13T93 70T16 335T92 600T335 683T578 601T654 335ZM157 849H399L433 713H261L157 849Z" />
<glyph unicode="&#xd3;" glyph-name="Oacute" horiz-adv-x="670" d="M250 250T266 213T335 175T404 212T420 335T405 458T336 495T267 458T250 335ZM654 152T578 70T336 -13T93 70T16 335T92 600T335 683T578 601T654 335ZM246 849H488L379 713H203L246 849Z" />
<glyph unicode="&#xd4;" glyph-name="Ocircumflex" horiz-adv-x="670" d="M250 250T266 213T335 175T404 212T420 335T405 458T336 495T267 458T250 335ZM654 152T578 70T336 -13T93 70T16 335T92 600T335 683T578 601T654 335ZM153 713L254 849H406L518 713H349L334
775L322 713H153Z" />
<glyph unicode="&#xd5;" glyph-name="Otilde" horiz-adv-x="670" d="M250 250T266 213T335 175T404 212T420 335T405 458T336 495T267 458T250 335ZM654 152T578 70T336 -13T93 70T16 335T92 600T335 683T578 601T654 335ZM491 744T463 728T409 712T330 729T263
746Q236 746 196 728L182 721L153 827Q170 847 203 866T265 886T346 870T408 854Q428 854 474 872L489 877L518 770Q512 764 502 754Z" />
<glyph unicode="&#xd6;" glyph-name="Odieresis" horiz-adv-x="670" d="M250 250T266 213T335 175T404 212T420 335T405 458T336 495T267 458T250 335ZM654 152T578 70T336 -13T93 70T16 335T92 600T335 683T578 601T654 335ZM358 713V857H519V713H358ZM151 713V857H312V713H151Z"
/>
<glyph unicode="&#xd7;" glyph-name="multiply" horiz-adv-x="550" d="M148 503L274 376L401 503L525 380L398 253L525 126L402 3L274 129L148 3L25 125L151 253L25 381L148 503Z" />
<glyph unicode="&#xd8;" glyph-name="Oslash" horiz-adv-x="670" d="M83 -10Q86 -1 109 53Q16 136 16 327T92 600T335 683L363 682L381 724L598 680L569 609Q654 527 654 340T578 70T335 -13H316L300 -54L83 -10ZM250 250T266 213T335 175T404 212T420 335T405
458T336 495T267 458T250 335Z" />
<glyph unicode="&#xd9;" glyph-name="Ugrave" horiz-adv-x="634" d="M252 670V231Q252 202 266 190T317 178T367 190T382 231V670H608V244Q608 103 538 45T317 -13T96 43T26 240V670H252ZM170 849H412L446 713H274L170 849Z" />
<glyph unicode="&#xda;" glyph-name="Uacute" horiz-adv-x="641" d="M258 670V231Q258 202 272 190T321 178T369 190T383 231V670H615V244Q615 102 544 45T321 -13T97 43T26 240V670H258ZM229 849H471L362 713H186L229 849Z" />
<glyph unicode="&#xdb;" glyph-name="Ucircumflex" horiz-adv-x="634" d="M252 670V231Q252 202 266 190T317 178T367 190T382 231V670H608V244Q608 103 538 45T317 -13T96 43T26 240V670H252ZM135 713L236 849H388L500 713H331L316 775L304 713H135Z" />
<glyph unicode="&#xdc;" glyph-name="Udieresis" horiz-adv-x="641" d="M258 670V231Q258 202 272 190T321 178T369 190T383 231V670H615V244Q615 102 544 45T321 -13T97 43T26 240V670H258ZM343 713V857H504V713H343ZM136 713V857H297V713H136Z" />
<glyph unicode="&#xdd;" glyph-name="Yacute" horiz-adv-x="590" d="M410 0H178V210L-13 670H233L296 473L361 670H606L410 210V0ZM236 849H478L369 713H193L236 849Z" />
<glyph unicode="&#xde;" glyph-name="Thorn" horiz-adv-x="611" d="M290 72H256V0H30V670H256V600H290Q368 600 421 589T514 548Q591 494 591 341T519 130T290 72ZM256 255H280Q325 255 344 273T363 338T345 401T280 417H256V255Z" />
<glyph unicode="&#xdf;" glyph-name="germandbls" horiz-adv-x="697" d="M252 0H28V453Q28 597 96 650T327 703T552 664T615 538Q615 489 604 470T554 430T505 401T494 380T508 359T584 328T668 275T692 175Q692 74 650 31T500 -13Q396 -13 318 5L292 11L299 158Q377
148 438 148Q476 148 476 167Q476 174 459 182T385 213T308 260T288 322T300 382T351 434T389 484Q389 515 342 515T274 503T252 460V0Z" />
<glyph unicode="&#xe0;" glyph-name="agrave" horiz-adv-x="557" d="M518 342V152Q527 145 542 141L539 -1Q461 -13 432 -13T379 -5T347 13L339 22Q277 -13 189 -13T55 27T10 158T61 278T222 313L294 316V325Q294 344 252 344Q161 344 70 334L37 331L32 483Q164
518 273 518Q387 518 450 484Q518 448 518 342ZM256 141Q275 141 294 156V193L260 191Q234 189 234 165T256 141ZM94 723H331L374 557H203L94 723Z" />
<glyph unicode="&#xe1;" glyph-name="aacute" horiz-adv-x="557" d="M518 342V152Q527 145 542 141L539 -1Q461 -13 432 -13T379 -5T347 13L339 22Q277 -13 189 -13T55 27T10 158T61 278T222 313L294 316V325Q294 344 252 344Q161 344 70 334L37 331L32 483Q164
518 273 518Q387 518 450 484Q518 448 518 342ZM256 141Q275 141 294 156V193L260 191Q234 189 234 165T256 141ZM221 723H458L349 557H178L221 723Z" />
<glyph unicode="&#xe2;" glyph-name="acircumflex" horiz-adv-x="557" d="M518 342V152Q527 145 542 141L539 -1Q461 -13 432 -13T379 -5T347 13L339 22Q277 -13 189 -13T55 27T10 158T61 278T222 313L294 316V325Q294 344 252 344Q161 344 70 334L37 331L32 483Q164
518 273 518Q387 518 450 484Q518 448 518 342ZM256 141Q275 141 294 156V193L260 191Q234 189 234 165T256 141ZM101 557L192 723H350L452 557H290L275 629L263 557H101Z" />
<glyph unicode="&#xe3;" glyph-name="atilde" horiz-adv-x="557" d="M518 342V152Q527 145 542 141L539 -1Q461 -13 432 -13T379 -5T347 13L339 22Q277 -13 189 -13T55 27T10 158T61 278T222 313L294 316V325Q294 344 252 344Q161 344 70 334L37 331L32 483Q164
518 273 518Q387 518 450 484Q518 448 518 342ZM256 141Q275 141 294 156V193L260 191Q234 189 234 165T256 141ZM376 547T350 547T271 569T204 591Q179 591 137 561L123 551L94 667Q114 691 145 711T206 731T287 710T349 688Q370 688 416 718L430 727L459 610Q438
586 407 567Z" />
<glyph unicode="&#xe4;" glyph-name="adieresis" horiz-adv-x="557" d="M518 342V152Q527 145 542 141L539 -1Q461 -13 432 -13T379 -5T347 13L339 22Q277 -13 189 -13T55 27T10 158T61 278T222 313L294 316V325Q294 344 252 344Q161 344 70 334L37 331L32 483Q164
518 273 518Q387 518 450 484Q518 448 518 342ZM256 141Q275 141 294 156V193L260 191Q234 189 234 165T256 141ZM299 559V713H463V559H299ZM89 559V713H253V559H89Z" />
<glyph unicode="&#xe5;" glyph-name="aring" horiz-adv-x="557" d="M518 342V152Q527 145 542 141L539 -1Q461 -13 432 -13T379 -5T347 13L339 22Q277 -13 189 -13T55 27T10 158T61 278T222 313L294 316V325Q294 344 252 344Q161 344 70 334L37 331L32 483Q164
518 273 518Q387 518 450 484Q518 448 518 342ZM256 141Q275 141 294 156V193L260 191Q234 189 234 165T256 141ZM142 592T142 642T178 716T275 741T373 717T410 643T375 569T277 543T178 567ZM246 663T246 642T276 620T307 641T277 663Z" />
<glyph unicode="&#xe6;" glyph-name="ae" horiz-adv-x="807" d="M494 187Q495 152 540 152Q639 152 740 158L778 161L783 16Q650 -13 540 -13T383 21Q281 -13 192 -13Q10 -13 10 157Q10 232 43 268Q78 307 220 313L288 316V325Q288 344 246 344Q156 344 69 334L37
331L32 483Q158 518 263 518T408 492Q455 518 532 518Q663 518 728 461T793 286L783 187H494ZM571 309Q571 338 562 350T532 362T502 350T493 309H571ZM250 141Q269 141 288 156V193L254 191Q228 189 228 165T250 141Z" />
<glyph unicode="&#xe7;" glyph-name="ccedilla" horiz-adv-x="466" d="M360 -34T389 -51T419 -124T388 -205T292 -231Q227 -231 182 -223L165 -220L169 -142Q200 -143 217 -143Q255 -143 255 -121Q255 -109 247 -105T217 -101H208V-10Q100 1 59 61T17 262T74 460T267
518Q336 518 420 498L448 492L441 315Q338 323 303 323T256 308T243 253T255 198T300 183L443 190L450 15Q364 -10 281 -13V-33Q360 -34 389 -51Z" />
<glyph unicode="&#xe8;" glyph-name="egrave" horiz-adv-x="552" d="M239 187Q240 152 284 152Q384 152 484 158L523 161L528 16Q395 -13 264 -13T74 47T15 243T78 448T274 518T473 461T538 286L528 187H239ZM314 309Q314 338 306 350T276 362T247 350T238 309H314ZM105
723H342L385 557H214L105 723Z" />
<glyph unicode="&#xe9;" glyph-name="eacute" horiz-adv-x="552" d="M239 187Q240 152 284 152Q384 152 484 158L523 161L528 16Q395 -13 264 -13T74 47T15 243T78 448T274 518T473 461T538 286L528 187H239ZM314 309Q314 338 306 350T276 362T247 350T238 309H314ZM210
723H447L338 557H167L210 723Z" />
<glyph unicode="&#xea;" glyph-name="ecircumflex" horiz-adv-x="552" d="M239 187Q240 152 284 152Q384 152 484 158L523 161L528 16Q395 -13 264 -13T74 47T15 243T78 448T274 518T473 461T538 286L528 187H239ZM314 309Q314 338 306 350T276 362T247 350T238
309H314ZM101 557L192 723H350L452 557H290L275 629L263 557H101Z" />
<glyph unicode="&#xeb;" glyph-name="edieresis" horiz-adv-x="552" d="M239 187Q240 152 284 152Q384 152 484 158L523 161L528 16Q395 -13 264 -13T74 47T15 243T78 448T274 518T473 461T538 286L528 187H239ZM314 309Q314 338 306 350T276 362T247 350T238
309H314ZM299 559V713H463V559H299ZM89 559V713H253V559H89Z" />
<glyph unicode="&#xec;" glyph-name="igrave" horiz-adv-x="280" d="M28 0V505H252V0H28ZM-38 723H199L242 557H71L-38 723Z" />
<glyph unicode="&#xed;" glyph-name="iacute" horiz-adv-x="280" d="M28 0V505H252V0H28ZM81 723H318L209 557H38L81 723Z" />
<glyph unicode="&#xee;" glyph-name="icircumflex" horiz-adv-x="280" d="M28 0V505H252V0H28ZM-35 557L56 723H214L316 557H154L139 629L127 557H-35Z" />
<glyph unicode="&#xef;" glyph-name="idieresis" horiz-adv-x="280" d="M28 0V505H252V0H28ZM162 559V713H326V559H162ZM-48 559V713H116V559H-48Z" />
<glyph unicode="&#xf0;" glyph-name="eth" horiz-adv-x="529" d="M384 735L446 646L403 617Q512 533 512 350T449 79T246 -9Q126 -9 66 46T6 211T61 381T218 441T343 423Q332 499 275 533L142 444L79 533L146 577Q101 586 46 595L65 705Q205 700 291 673L384 735ZM237
302Q206 302 191 277T176 214T191 155T246 133Q342 133 342 286Q297 302 237 302Z" />
<glyph unicode="&#xf1;" glyph-name="ntilde" horiz-adv-x="578" d="M252 0H28V505H251V479Q314 518 361 518Q469 518 512 460T555 253V0H331V238Q331 325 295 325L252 318V0ZM396 547T370 547T291 569T224 591Q199 591 157 561L143 551L114 667Q134 691 165 711T226
731T307 710T369 688Q390 688 436 718L450 727L479 610Q458 586 427 567Z" />
<glyph unicode="&#xf2;" glyph-name="ograve" horiz-adv-x="564" d="M148 518T282 518T482 456T549 252T483 49T282 -13T82 49T15 252T81 455ZM259 168T282 168T314 186T323 252T314 319T282 337T250 319T241 253T250 186ZM100 723H337L380 557H209L100 723Z" />
<glyph unicode="&#xf3;" glyph-name="oacute" horiz-adv-x="564" d="M148 518T282 518T482 456T549 252T483 49T282 -13T82 49T15 252T81 455ZM259 168T282 168T314 186T323 252T314 319T282 337T250 319T241 253T250 186ZM227 723H464L355 557H184L227 723Z" />
<glyph unicode="&#xf4;" glyph-name="ocircumflex" horiz-adv-x="564" d="M148 518T282 518T482 456T549 252T483 49T282 -13T82 49T15 252T81 455ZM259 168T282 168T314 186T323 252T314 319T282 337T250 319T241 253T250 186ZM107 557L198 723H356L458 557H296L281
629L269 557H107Z" />
<glyph unicode="&#xf5;" glyph-name="otilde" horiz-adv-x="564" d="M148 518T282 518T482 456T549 252T483 49T282 -13T82 49T15 252T81 455ZM259 168T282 168T314 186T323 252T314 319T282 337T250 319T241 253T250 186ZM382 547T356 547T277 569T210 591Q185
591 143 561L129 551L100 667Q120 691 151 711T212 731T293 710T355 688Q376 688 422 718L436 727L465 610Q444 586 413 567Z" />
<glyph unicode="&#xf6;" glyph-name="odieresis" horiz-adv-x="564" d="M148 518T282 518T482 456T549 252T483 49T282 -13T82 49T15 252T81 455ZM259 168T282 168T314 186T323 252T314 319T282 337T250 319T241 253T250 186ZM305 559V713H469V559H305ZM95 559V713H259V559H95Z"
/>
<glyph unicode="&#xf7;" glyph-name="divide" horiz-adv-x="550" d="M43 340H507V170H43V340ZM175 360V500H375V360H175ZM175 10V150H375V10H175Z" />
<glyph unicode="&#xf8;" glyph-name="oslash" horiz-adv-x="564" d="M282 -13L247 -12L212 -74L-5 -30L57 78Q15 141 15 253Q15 393 81 455T282 518Q299 518 308 517L349 589L404 578Q458 568 512 557L566 546L502 433Q549 369 549 253Q549 111 483 49T282 -13ZM259
168T282 168T314 186T323 252T314 319T282 337T250 319T241 253T250 186Z" />
<glyph unicode="&#xf9;" glyph-name="ugrave" horiz-adv-x="577" d="M325 505H549V0H327V24Q263 -13 213 -13Q107 -13 65 48T23 244V505H247V259Q247 214 255 197T281 180L325 186V505ZM117 723H354L397 557H226L117 723Z" />
<glyph unicode="&#xfa;" glyph-name="uacute" horiz-adv-x="577" d="M325 505H549V0H327V24Q263 -13 213 -13Q107 -13 65 48T23 244V505H247V259Q247 214 255 197T281 180L325 186V505ZM229 723H466L357 557H186L229 723Z" />
<glyph unicode="&#xfb;" glyph-name="ucircumflex" horiz-adv-x="577" d="M325 505H549V0H327V24Q263 -13 213 -13Q107 -13 65 48T23 244V505H247V259Q247 214 255 197T281 180L325 186V505ZM116 557L207 723H365L467 557H305L290 629L278 557H116Z" />
<glyph unicode="&#xfc;" glyph-name="udieresis" horiz-adv-x="577" d="M325 505H549V0H327V24Q263 -13 213 -13Q107 -13 65 48T23 244V505H247V259Q247 214 255 197T281 180L325 186V505ZM314 559V713H478V559H314ZM104 559V713H268V559H104Z" />
<glyph unicode="&#xfd;" glyph-name="yacute" horiz-adv-x="546" d="M86 0L1 505H239L275 187H289L321 505H546L427 -195H181L244 0H86ZM223 723H460L351 557H180L223 723Z" />
<glyph unicode="&#xfe;" glyph-name="thorn" horiz-adv-x="569" d="M251 703V502Q318 518 355 518Q461 518 507 450T553 248T503 50T333 -13Q310 -13 264 -3L251 0V-195H27V703H251ZM283 168Q327 168 327 256Q327 303 317 320T283 337L251 330V171Q264 168 283 168Z" />
<glyph unicode="&#xff;" glyph-name="ydieresis" horiz-adv-x="546" d="M86 0L1 505H239L275 187H289L321 505H546L427 -195H181L244 0H86ZM296 559V713H460V559H296ZM86 559V713H250V559H86Z" />
<glyph unicode="&#x2013;" glyph-name="endash" horiz-adv-x="560" d="M30 155V352H530V155H30Z" />
<glyph unicode="&#x2014;" glyph-name="emdash" horiz-adv-x="1060" d="M30 155V352H1030V155H30Z" />
<glyph unicode="&#x2018;" glyph-name="quoteleft" horiz-adv-x="278" d="M259 670L238 389H8L83 670H259Z" />
<glyph unicode="&#x2019;" glyph-name="quoteright" horiz-adv-x="275" d="M19 389L40 670H270L195 389H19Z" />
<glyph unicode="&#x201a;" glyph-name="quotesinglbase" horiz-adv-x="274" d="M11 -108L32 173H262L187 -108H11Z" />
<glyph unicode="&#x201c;" glyph-name="quotedblleft" horiz-adv-x="544" d="M259 670L238 389H8L83 670H259ZM525 670L504 389H274L349 670H525Z" />
<glyph unicode="&#x201d;" glyph-name="quotedblright" horiz-adv-x="541" d="M19 389L40 670H270L195 389H19ZM285 389L306 670H536L461 389H285Z" />
<glyph unicode="&#x201e;" glyph-name="quotedblbase" horiz-adv-x="540" d="M11 -108L32 173H262L187 -108H11ZM277 -108L298 173H528L453 -108H277Z" />
<glyph unicode="&#x2022;" glyph-name="bullet" horiz-adv-x="377" d="M51 140V410H326V140H51Z" />
<glyph unicode="&#x2039;" glyph-name="guilsinglleft" horiz-adv-x="354" d="M335 426L221 257L335 88L173 14L14 244V265L175 500L335 426Z" />
<glyph unicode="&#x203a;" glyph-name="guilsinglright" horiz-adv-x="354" d="M19 80L133 249L19 418L181 492L340 262V241L179 6L19 80Z" />
</font>
</defs>
</svg>
