<?xml version="1.0" standalone="no"?>
<!DOCTYPE svg PUBLIC "-//W3C//DTD SVG 1.1//EN" "http://www.w3.org/Graphics/SVG/1.1/DTD/svg11.dtd">
<svg xmlns="http://www.w3.org/2000/svg">
<defs >
<font id="TitilliumWeb" horiz-adv-x="480" ><font-face
    font-family="Titillium Web SemiBold"
    units-per-em="1000"
    panose-1="0 0 7 0 0 0 0 0 0 0"
    ascent="1133"
    descent="-388"
    alphabetic="0" />
<glyph unicode=" " glyph-name="space" horiz-adv-x="220" />
<glyph unicode="!" glyph-name="exclam" horiz-adv-x="174" d="M92 246L192 700H306L193 246H92ZM33 0L64 135H174L143 0H33Z" />
<glyph unicode="&quot;" glyph-name="quotedbl" horiz-adv-x="309" d="M346 450H164L220 691H409L346 450Z" />
<glyph unicode="#" glyph-name="numbersign" horiz-adv-x="560" d="M577 171H475L432 0H337L379 171H254L211 0H116L158 171H56L79 263H181L215 400H113L136 491H238L281 663H376L333 491H459L502 663H597L554 491H656L634 400H531L497 263H600L577 171ZM402 263L436
400H310L276 263H402Z" />
<glyph unicode="$" glyph-name="dollar" horiz-adv-x="560" d="M533 218Q533 109 467 49T288 -11Q274 -11 248 -9L202 -119H131L181 0L91 23L109 101Q163 92 218 87L309 302Q244 330 216 364T188 459Q188 554 249 613T415 672Q440 672 465 669L510 776H583L533
659L608 640L588 563Q545 570 498 575L412 375Q482 344 507 312T533 218ZM423 206Q423 232 413 246T370 276L288 83H289Q423 83 423 206ZM297 470Q297 444 308 430T351 400L427 581H416Q360 581 329 552T297 470Z" />
<glyph unicode="%" glyph-name="percent" horiz-adv-x="560" d="M253 483Q273 483 284 500T305 553T314 607Q314 634 291 634Q272 634 260 617T239 565T230 512Q230 483 253 483ZM128 6L524 715L591 692L195 -17L128 6ZM156 559Q191 701 308 701Q396 701 396 618Q396
592 388 559Q352 415 237 415Q181 415 160 451Q148 471 148 498T156 559ZM530 0T415 0Q327 0 327 85Q327 111 335 144Q370 286 486 286Q574 286 574 203Q574 177 566 144Q530 0 415 0ZM492 192Q492 219 469 219Q450 219 438 202T417 149T408 95Q408 68 431 68Q450
68 462 86T483 139T492 192Z" />
<glyph unicode="&amp;" glyph-name="ampersand" horiz-adv-x="638" d="M435 696Q597 696 597 558Q597 485 556 439T412 353L503 229Q517 249 533 288T557 356H658Q646 310 616 251T560 158L646 54L571 -11L492 90Q396 -11 267 -11Q158 -11 113 33T68 163T116 307T268
405Q240 456 240 508Q240 601 293 648T435 696ZM287 82Q327 82 369 103T438 157L308 340Q237 310 209 269T181 169Q181 82 287 82ZM392 605T371 578T349 500T373 414Q440 445 464 474T488 549Q488 605 433 605Q392 605 371 578Z" />
<glyph unicode="&apos;" glyph-name="quotesingle" horiz-adv-x="148" d="M222 450H128L184 691H285L222 450Z" />
<glyph unicode="(" glyph-name="parenleft" horiz-adv-x="231" d="M225 398T201 302T177 134Q177 -1 189 -92L193 -123H90Q64 -31 64 124Q64 214 88 311T146 483Q217 639 272 715L296 748H397Q370 708 327 625T254 470Z" />
<glyph unicode=")" glyph-name="parenright" horiz-adv-x="232" d="M152 232T176 328T200 496Q200 631 188 722L184 753H287Q313 661 313 506Q313 416 289 319T231 147Q160 -9 105 -85L81 -118H-20Q7 -78 50 5T123 160Z" />
<glyph unicode="*" glyph-name="asterisk" horiz-adv-x="419" d="M503 504H376L415 382L353 363L312 486L207 407L167 458L273 537L170 611L209 665L312 590L352 713L416 692L377 568H503V504Z" />
<glyph unicode="+" glyph-name="plus" horiz-adv-x="560" d="M110 202V300H287V479H385V300H565V202H385V21H287V202H110Z" />
<glyph unicode="," glyph-name="comma" horiz-adv-x="179" d="M54 -130H-35L74 135H193L54 -130Z" />
<glyph unicode="-" glyph-name="hyphen" horiz-adv-x="297" d="M72 217L97 315H347L323 217H72Z" />
<glyph unicode="." glyph-name="period" horiz-adv-x="159" d="M25 0L55 135H165L135 0H25Z" />
<glyph unicode="/" glyph-name="slash" horiz-adv-x="447" d="M141 -18L39 18L469 713L570 677L141 -18Z" />
<glyph unicode="0" glyph-name="zero" horiz-adv-x="560" d="M405 671Q614 671 614 466T528 125T306 -11Q98 -11 98 192Q98 325 136 434T244 607T405 671ZM500 515T478 545T400 576T300 514T233 369T212 215T234 115T311 85T411 145T478 288T500 443Z" />
<glyph unicode="1" glyph-name="one" horiz-adv-x="560" d="M210 520L458 660H555L403 0H292L414 528L240 432L210 520Z" />
<glyph unicode="2" glyph-name="two" horiz-adv-x="560" d="M406 364T446 410T487 498T462 558T391 576Q313 576 235 562L209 558L223 640Q321 672 414 672Q601 672 601 522Q601 443 559 385T426 257L218 96H512L489 0H65L87 91L310 282Q406 364 446 410Z" />
<glyph unicode="3" glyph-name="three" horiz-adv-x="560" d="M216 635Q308 671 406 671T551 637T597 533T567 421T470 349Q508 329 524 302T540 221Q540 116 463 53T263 -11Q219 -11 170 -3T92 15L64 24L88 102Q200 85 268 85T382 120T427 216Q427 252 404 269T328
288L200 289L221 373L350 378Q395 379 439 416T483 502Q483 576 383 576Q309 576 231 564L205 560L216 635Z" />
<glyph unicode="4" glyph-name="four" horiz-adv-x="560" d="M338 -4L366 117H73L92 199L385 660H506L211 210H387L432 404H542L497 210H566L544 117H476L448 -4H338Z" />
<glyph unicode="5" glyph-name="five" horiz-adv-x="560" d="M385 416Q558 416 558 262Q558 144 482 67T290 -11Q241 -11 185 -2T98 18L66 28L91 114Q205 85 277 85T397 130T444 240Q444 320 351 320Q298 320 242 298L224 290L142 308L250 661H636L614 565H317L252
380Q332 416 385 416Z" />
<glyph unicode="6" glyph-name="six" horiz-adv-x="560" d="M445 576Q307 576 244 382Q329 420 398 420Q577 420 577 252Q577 134 507 62T308 -11Q212 -11 159 47T105 220Q105 294 129 371T197 517T313 628T471 671Q534 671 612 655L637 650L603 560Q524 576 445
576ZM463 239Q463 324 374 324Q302 324 246 300L228 293Q219 255 219 208T242 123T314 85Q387 85 425 126T463 239Z" />
<glyph unicode="7" glyph-name="seven" horiz-adv-x="560" d="M205 564L227 660H633L599 512L231 -16L130 15L492 525L500 564H205Z" />
<glyph unicode="8" glyph-name="eight" horiz-adv-x="560" d="M441 672Q537 672 587 635T638 539Q638 408 506 342Q573 303 573 215T491 57T269 -13Q65 -13 65 145Q65 210 108 260T210 342Q175 370 165 392T155 447Q155 537 230 604T441 672ZM186 123T212 103T303
83T412 123T456 211Q456 243 442 260T391 289H298Q250 274 218 243T186 167ZM416 576Q349 576 309 540T269 458Q269 431 280 415T321 382H414Q454 399 486 430T519 498Q519 576 416 576Z" />
<glyph unicode="9" glyph-name="nine" horiz-adv-x="560" d="M113 107Q178 91 254 91T387 139T466 274Q358 243 302 243Q134 243 134 403Q134 515 213 593T422 671Q521 671 564 599Q598 542 598 446Q598 422 596 395Q590 295 559 217T477 89Q375 -11 231 -11Q165
-11 100 6L79 11L113 107ZM499 447Q499 570 397 570Q338 570 294 533T244 436Q243 425 243 416Q243 381 263 362T336 343T464 360L489 365Q499 410 499 447Z" />
<glyph unicode=":" glyph-name="colon" horiz-adv-x="163" d="M99 311L129 446H239L209 311H99ZM26 0L56 135H166L136 0H26Z" />
<glyph unicode=";" glyph-name="semicolon" horiz-adv-x="186" d="M-31 -130L78 135H197L58 -130H-31ZM116 311L146 446H256L226 311H116Z" />
<glyph unicode="&lt;" glyph-name="less" horiz-adv-x="560" d="M521 377L226 253L521 123V11L111 206V296L521 488V377Z" />
<glyph unicode="=" glyph-name="equal" horiz-adv-x="560" d="M119 301V399H557V301H119ZM119 103V201H557V103H119Z" />
<glyph unicode="&gt;" glyph-name="greater" horiz-adv-x="560" d="M448 253L153 377V488L563 296V206L153 11V123L448 253Z" />
<glyph unicode="?" glyph-name="question" horiz-adv-x="424" d="M514 551Q514 481 482 438T357 327Q297 282 289 243L280 203H178Q178 245 185 281Q195 335 282 399Q350 449 374 477T399 540T378 587T321 599Q251 599 192 588L170 584L181 670Q270 696 339 696Q514
696 514 551ZM129 0L162 146H272L239 0H129Z" />
<glyph unicode="@" glyph-name="at" horiz-adv-x="948" d="M637 724Q920 724 985 546Q1004 495 1004 438Q1004 374 984 296Q941 124 885 57T741 -10T630 39Q595 21 539 5T437 -11T361 12T319 71Q307 115 307 156T315 231Q369 511 568 511Q621 511 791 482Q778
430 747 289T715 128T726 101T761 93Q799 93 827 139T885 307Q903 383 903 423T893 502T852 570Q786 632 615 632T344 543T199 268Q183 202 183 149T198 48T248 -36Q320 -112 480 -112L617 -103L597 -195Q500 -204 438 -204T311 -186T203 -134Q81 -39 81 139Q81
202 97 268Q155 512 284 618T637 724ZM415 166Q415 83 468 82Q528 82 607 126Q611 172 666 404Q606 419 566 419Q509 419 476 369T424 230Q415 195 415 166Z" />
<glyph unicode="A" glyph-name="A" horiz-adv-x="552" d="M423 0V143H199L130 0H18L341 685H540L534 0H423ZM406 588L242 241H426L431 588H406Z" />
<glyph unicode="B" glyph-name="B" horiz-adv-x="575" d="M459 685Q632 685 632 543Q632 418 512 353Q553 333 569 306T585 235Q585 131 517 66T319 0H70L228 685H459ZM384 300H251L204 96H341Q401 96 435 133T470 232Q470 300 384 300ZM441 589H318L272 394H397Q449
394 483 430T518 522Q518 557 500 573T441 589Z" />
<glyph unicode="C" glyph-name="C" horiz-adv-x="498" d="M305 -11Q105 -11 105 186Q105 331 155 457Q182 525 221 577T321 663T454 696Q521 696 598 676L623 669L597 585Q529 599 454 599T325 537T246 384T220 194Q220 86 319 86Q382 86 458 98L481 101L473 13Q382
-11 305 -11Z" />
<glyph unicode="D" glyph-name="D" horiz-adv-x="606" d="M313 0H70L229 685H446Q656 685 656 479Q656 302 574 158Q534 87 466 44T313 0ZM515 296T528 359T541 479T513 562T424 588H317L205 97H324Q378 97 422 136T490 236Z" />
<glyph unicode="E" glyph-name="E" horiz-adv-x="500" d="M70 0L228 685H621L598 588H317L273 394H499L476 296H251L205 97H487L464 0H70Z" />
<glyph unicode="F" glyph-name="F" horiz-adv-x="479" d="M70 0L229 685H614L591 588H317L264 353H494L470 256H241L182 0H70Z" />
<glyph unicode="G" glyph-name="G" horiz-adv-x="570" d="M325 -11Q107 -11 107 195Q107 354 162 480Q223 616 334 668Q395 696 454 696Q561 696 644 669L671 660L645 579Q545 599 456 599Q396 599 350 560T276 459Q222 335 222 194Q222 86 338 86Q378 86 414
94L426 96L468 277H387L409 370H601L518 15Q442 -11 325 -11Z" />
<glyph unicode="H" glyph-name="H" horiz-adv-x="622" d="M440 0L508 300H251L182 0H70L229 685H340L274 397H531L598 685H709L551 0H440Z" />
<glyph unicode="I" glyph-name="I" horiz-adv-x="252" d="M70 0L229 685H340L182 0H70Z" />
<glyph unicode="J" glyph-name="J" horiz-adv-x="275" d="M366 685L237 128Q208 -3 169 -36T6 -70L25 28Q76 29 93 45T126 130L255 685H366Z" />
<glyph unicode="K" glyph-name="K" horiz-adv-x="532" d="M401 0L333 288L247 282L182 0H70L229 685H340L269 380L345 386L551 685H674L434 341L518 0H401Z" />
<glyph unicode="L" glyph-name="L" horiz-adv-x="427" d="M422 0H70L229 685H340L205 97H444L422 0Z" />
<glyph unicode="M" glyph-name="M" horiz-adv-x="785" d="M70 0L229 685H406L426 151L693 685H873L715 0H603L740 588H732L453 28H345L324 588H317L182 0H70Z" />
<glyph unicode="N" glyph-name="N" horiz-adv-x="642" d="M70 0L229 685H412L478 117H493L622 685H730L572 0H397L325 575H310L176 0H70Z" />
<glyph unicode="O" glyph-name="O" horiz-adv-x="620" d="M221 141T247 114T333 86T435 123Q491 173 523 276T555 479Q555 543 529 571T444 599T347 566Q289 513 255 407T221 221ZM506 48Q430 -11 322 -11T160 39T106 196Q106 326 146 443T264 627Q341 696 452
696Q670 696 670 489Q670 353 629 233T506 48Z" />
<glyph unicode="P" glyph-name="P" horiz-adv-x="547" d="M344 212H231L182 0H70L229 685H434Q535 685 581 642T627 505Q627 367 552 290T344 212ZM360 309Q433 309 473 362T513 504Q513 547 493 567T425 588H317L253 309H360Z" />
<glyph unicode="Q" glyph-name="Q" horiz-adv-x="620" d="M320 -11Q214 -11 160 39T106 196Q106 326 146 443T264 627Q341 696 452 696Q670 696 670 489Q670 353 629 233T506 48Q491 35 466 23L514 -115L409 -150L365 -8Q342 -11 320 -11ZM221 141T247 114T333
86T435 123Q491 173 523 276T555 479Q555 543 529 571T444 599T347 566Q289 513 255 407T221 221Z" />
<glyph unicode="R" glyph-name="R" horiz-adv-x="561" d="M432 685Q532 685 580 642T628 502T581 339T465 250L529 0H418L362 235H236L182 0H70L229 685H432ZM437 331T475 379T513 487T493 568T424 589H318L258 331H373Q437 331 475 379Z" />
<glyph unicode="S" glyph-name="S" horiz-adv-x="497" d="M568 583Q460 601 396 601T299 571T266 487Q266 453 285 437T379 390T482 326T511 226Q511 113 443 51T257 -11Q212 -11 161 -3T82 15L53 24L71 105Q186 86 258 86Q397 86 397 213Q397 248 378 264T288
310T185 374T153 475Q153 574 217 635T389 696Q434 696 483 688T560 672L588 663L568 583Z" />
<glyph unicode="T" glyph-name="T" horiz-adv-x="461" d="M145 588L168 685H610L587 588H421L285 0H174L309 588H145Z" />
<glyph unicode="U" glyph-name="U" horiz-adv-x="594" d="M227 225Q218 185 218 151Q218 86 320 86Q389 86 420 118T469 222L576 685H688L581 222Q553 100 490 45T320 -11Q107 -11 107 139Q107 181 119 241L222 685H334L227 225Z" />
<glyph unicode="V" glyph-name="V" horiz-adv-x="551" d="M578 685H690L373 0H171L175 685H286L274 97H312L578 685Z" />
<glyph unicode="W" glyph-name="W" horiz-adv-x="849" d="M179 685H291L253 103H273L518 675H640L613 103H632L873 685H984L690 0H519L546 527L326 0H150L179 685Z" />
<glyph unicode="X" glyph-name="X" horiz-adv-x="517" d="M291 685L357 425L547 685H666L404 343L506 0H390L319 262L125 0H6L272 345L173 685H291Z" />
<glyph unicode="Y" glyph-name="Y" horiz-adv-x="499" d="M652 685L367 291L298 0H194L263 298L163 685H276L338 395L534 685H652Z" />
<glyph unicode="Z" glyph-name="Z" horiz-adv-x="492" d="M173 588L196 685H613L585 562L190 122L184 97H477L454 0H37L64 121L457 563L463 588H173Z" />
<glyph unicode="[" glyph-name="bracketleft" horiz-adv-x="259" d="M205 747H419L397 654H295L136 -29H237L214 -122H2L205 747Z" />
<glyph unicode="\" glyph-name="backslash" horiz-adv-x="459" d="M432 4L319 0L187 698L301 702L432 4Z" />
<glyph unicode="]" glyph-name="bracketright" horiz-adv-x="258" d="M198 -122H-16L6 -29H108L267 654H166L189 747H401L198 -122Z" />
<glyph unicode="^" glyph-name="asciicircum" horiz-adv-x="560" d="M444 316L320 554L196 316H82L272 660H366L558 316H444Z" />
<glyph unicode="_" glyph-name="underscore" horiz-adv-x="521" d="M18 -80H466L443 -182H-5L18 -80Z" />
<glyph unicode="`" glyph-name="grave" horiz-adv-x="518" d="M312 759L517 667L471 588L260 671L312 759Z" />
<glyph unicode="a" glyph-name="a" horiz-adv-x="516" d="M219 -11Q150 -11 117 33T84 145T99 273T144 387T223 476T337 511Q393 511 525 489L567 482L492 158L465 2L358 -2Q369 70 373 89Q326 27 266 0Q242 -11 219 -11ZM443 404Q375 419 335 419T260 374Q194
291 194 156Q194 119 207 101T249 82T312 108T369 162L392 189L443 404Z" />
<glyph unicode="b" glyph-name="b" horiz-adv-x="515" d="M403 511Q546 511 546 353Q546 261 518 180T430 45T288 -10Q198 -10 98 12L63 19L221 708H330L270 449Q293 472 333 491T403 511ZM188 93Q243 82 284 82T356 111T403 184Q435 272 435 342Q435 377 422
397T379 418T317 402T267 370L248 353L188 93Z" />
<glyph unicode="c" glyph-name="c" horiz-adv-x="407" d="M348 511Q405 511 466 492L487 485L459 405Q387 417 344 417Q273 417 235 345T197 178T284 83Q327 83 375 91L393 94L385 12Q314 -11 243 -11T129 32T86 153Q86 307 154 409T348 511Z" />
<glyph unicode="d" glyph-name="d" horiz-adv-x="516" d="M220 -11Q153 -11 119 31T84 156T111 318T198 454T335 510Q374 510 440 496L461 491L511 708H620L456 0H351L364 68Q357 59 344 46T293 11T220 -11ZM441 404Q380 418 336 418T259 373T210 269T194 153Q194
81 255 81Q277 81 310 104T366 150L388 173L441 404Z" />
<glyph unicode="e" glyph-name="e" horiz-adv-x="470" d="M194 120T217 101T274 82Q346 82 416 94L442 99L431 17Q340 -11 247 -11Q85 -11 85 151Q85 293 148 396Q180 448 234 479T357 510Q521 510 521 373Q521 281 456 245T242 209H200Q194 187 194 154ZM260
291Q344 291 379 309T414 372Q414 422 352 422Q248 422 213 291H260Z" />
<glyph unicode="f" glyph-name="f" horiz-adv-x="320" d="M379 719Q420 719 456 705L469 700L449 619Q412 626 382 626T338 603T310 529L303 500H421L398 407H283L188 0L126 -216H29L174 406H124L146 500H195L202 530Q226 634 264 676T379 719Z" />
<glyph unicode="g" glyph-name="g" horiz-adv-x="477" d="M458 -124T392 -178T222 -232Q13 -232 13 -98Q13 -49 48 -16T139 45Q121 63 121 88T135 138T164 176L179 190Q110 227 110 311T166 453T315 511Q355 511 408 498L425 494L572 500L551 411H480Q489 388
489 352Q489 276 431 219T279 162L241 167Q219 138 219 121T237 98T319 83T420 47T458 -40Q458 -124 392 -178ZM160 -1T137 -25T113 -76T137 -122T217 -141T313 -119T355 -52Q355 -28 337 -19T263 -1T188 13Q160 -1 137 -25ZM287 251Q333 251 361 283T389 354Q389
422 310 422Q266 422 239 391T211 318Q211 251 287 251Z" />
<glyph unicode="h" glyph-name="h" horiz-adv-x="507" d="M410 511Q471 511 500 475T530 387T509 248L452 0H344L400 241Q418 313 418 349T407 401T371 417T316 397T265 355L245 334L168 0H60L223 708H331L269 435Q277 444 290 456T340 490T410 511Z" />
<glyph unicode="i" glyph-name="i" horiz-adv-x="227" d="M60 0L175 500H283L168 0H60ZM191 574L218 691H328L301 574H191Z" />
<glyph unicode="j" glyph-name="j" horiz-adv-x="227" d="M60 0L175 500H283L168 0Q150 -76 133 -110T92 -160Q40 -196 -43 -232L-78 -145Q5 -103 25 -81T60 0ZM190 569L217 685H326L300 569H190Z" />
<glyph unicode="k" glyph-name="k" horiz-adv-x="458" d="M168 0H60L223 708H331L238 306L285 311L436 499H557L366 263L445 0H333L269 221L218 217L168 0Z" />
<glyph unicode="l" glyph-name="l" horiz-adv-x="231" d="M61 0L225 708H333L170 0H61Z" />
<glyph unicode="m" glyph-name="m" horiz-adv-x="775" d="M417 352Q417 417 364 417Q344 417 314 397T264 355L245 334L168 0H60L175 500H279L268 435Q271 438 275 443T295 461T328 485Q370 511 411 511T479 492T512 452L519 432Q528 441 543 454T601 489T679
511Q740 511 769 475T798 388T779 248L722 0H613L671 241Q689 325 689 349Q689 417 639 417Q618 417 589 399T542 363L524 345Q519 291 508 248L451 0H343L399 241Q417 325 417 352Z" />
<glyph unicode="n" glyph-name="n" horiz-adv-x="506" d="M410 511Q471 511 500 475T530 386T509 249L452 0H344L400 241Q418 325 418 355T407 401T370 417T314 397T264 355L245 334L168 0H60L175 500H279L268 434Q276 443 289 455T339 489T410 511Z" />
<glyph unicode="o" glyph-name="o" horiz-adv-x="495" d="M337 510Q524 510 524 330Q524 244 496 168T409 40T270 -11Q85 -11 85 167Q85 253 115 330T204 459T337 510ZM270 81Q335 81 375 157T416 331Q416 372 396 395T337 418Q273 418 233 341T193 166Q193 81 270 81Z" />
<glyph unicode="p" glyph-name="p" horiz-adv-x="515" d="M408 511Q478 511 512 468T547 345T520 184T433 47T296 -10Q245 -10 189 4L169 9L117 -215H10L175 500H281L267 432Q275 441 288 454T338 489T408 511ZM375 418Q354 418 321 395T264 350L242 327L190 97Q251
82 295 82T372 127T421 231T437 345Q437 418 375 418Z" />
<glyph unicode="q" glyph-name="q" horiz-adv-x="514" d="M221 -11Q154 -11 119 31T84 156T112 319T199 454T335 510Q411 510 526 488L566 481L407 -213H299L364 69Q361 66 357 61T337 41T305 16Q263 -11 221 -11ZM441 404Q380 418 337 418T260 375T211 272T194
155Q194 82 255 82Q277 82 310 104T366 150L388 173L441 404Z" />
<glyph unicode="r" glyph-name="r" horiz-adv-x="326" d="M60 0L175 500H282L265 427Q299 454 347 479T432 511L401 399Q356 386 272 346L246 334L168 0H60Z" />
<glyph unicode="s" glyph-name="s" horiz-adv-x="431" d="M306 418Q267 418 245 398T222 353T238 318T297 296T360 275T400 254Q436 231 436 175Q436 84 375 37T215 -11Q139 -11 70 11L48 18L68 99Q163 81 219 81Q326 81 326 154Q326 173 310 182T237 206T146
246T113 321Q113 408 172 459T317 510Q400 510 468 490L490 484L470 403Q371 418 306 418Z" />
<glyph unicode="t" glyph-name="t" horiz-adv-x="324" d="M217 118Q217 81 256 81L328 87L319 8Q267 -11 215 -11T134 17T105 88T120 194L170 407H112L136 500H193L224 637H333L301 500H421L398 407H279L227 185Q217 143 217 118Z" />
<glyph unicode="u" glyph-name="u" horiz-adv-x="506" d="M212 -11Q151 -11 122 25T92 123Q92 160 112 251L169 500H277L222 259Q204 187 204 148Q204 83 256 83Q277 83 307 103T357 145L377 166L454 500H562L447 0H343L354 66Q346 57 333 45T283 11T212 -11Z" />
<glyph unicode="v" glyph-name="v" horiz-adv-x="459" d="M131 500H238L233 90H257L448 500H558L315 0H135L131 500Z" />
<glyph unicode="w" glyph-name="w" horiz-adv-x="748" d="M139 500H248L226 93H247L426 490H550L541 93H562L731 500H841L627 0H443L452 346L300 0H119L139 500Z" />
<glyph unicode="x" glyph-name="x" horiz-adv-x="425" d="M129 500H240L291 328L418 500H529L327 242L411 0H300L250 167L125 0H11L212 250L129 500Z" />
<glyph unicode="y" glyph-name="y" horiz-adv-x="460" d="M131 500H238L233 90H255L448 500H558L212 -215H103L211 0H135L131 500Z" />
<glyph unicode="z" glyph-name="z" horiz-adv-x="416" d="M129 407L152 500H496L474 410L183 93H403L379 0H36L55 91L345 407H129Z" />
<glyph unicode="{" glyph-name="braceleft" horiz-adv-x="299" d="M188 312Q250 281 250 228Q250 202 227 123T204 21Q204 -36 275 -36L249 -130Q177 -129 137 -98T97 -10Q97 15 119 96T141 196Q141 247 72 279L91 359Q154 375 175 395T206 458Q210 473 221 535T234
601Q259 683 310 717T459 756L441 662Q390 658 366 636T331 571L308 448Q294 389 268 360T188 312Z" />
<glyph unicode="|" glyph-name="bar" horiz-adv-x="325" d="M165 -215V708H273V-215H165Z" />
<glyph unicode="}" glyph-name="braceright" horiz-adv-x="298" d="M254 311Q192 342 192 394Q192 421 215 500T238 602Q238 659 167 659L193 753Q265 752 305 721T345 633Q345 608 323 527T301 427Q301 376 370 344L351 264Q288 248 267 228T236 165Q232 150
221 88T208 22Q183 -60 132 -94T-17 -133L1 -39Q52 -35 76 -13T111 52L134 175Q148 234 174 263T254 311Z" />
<glyph unicode="~" glyph-name="asciitilde" horiz-adv-x="560" d="M468 181T441 181T336 206T239 232T194 222T150 200L133 190L123 278Q186 330 243 330Q272 330 347 305T442 279Q476 279 529 310L546 320L555 233Q537 215 503 198Z" />
<glyph unicode="&#xa0;" glyph-name="uni00A0" horiz-adv-x="220" />
<glyph unicode="&#xa1;" glyph-name="exclamdown" horiz-adv-x="168" d="M195 254L95 -200H-19L94 254H195ZM254 500L223 365H113L144 500H254Z" />
<glyph unicode="&#xa2;" glyph-name="cent" horiz-adv-x="560" d="M173 74T163 104T151 156T150 197T160 249Q186 352 243 406T382 466L407 575H495L468 464L547 454L520 362Q444 367 408 367Q346 367 313 339T265 249Q258 222 258 199T268 161Q286 133 355 133L470
138L452 46Q406 40 367 38L341 -77H254L278 32Q233 34 203 54Z" />
<glyph unicode="&#xa3;" glyph-name="sterling" horiz-adv-x="560" d="M592 575Q526 583 493 583T445 576T418 549Q402 520 389 463L382 433H555L533 340H361L304 93H416L487 110L485 17L409 0H77L98 93H194L250 340H172L194 433H271L282 476Q309 586 350 632T478
679Q518 679 594 663L617 658L592 575Z" />
<glyph unicode="&#xa4;" glyph-name="currency" horiz-adv-x="560" d="M387 62T339 62T247 86L176 14L101 89L172 160Q149 203 149 252T172 343L101 415L176 490L247 418Q290 441 338 441T430 418L501 490L576 415L504 343Q527 301 527 252T504 160L576 89L501
14L430 86Q387 62 339 62ZM301 162T338 162T402 188T428 252T402 316T339 342T275 316T249 252T275 188Z" />
<glyph unicode="&#xa5;" glyph-name="yen" horiz-adv-x="560" d="M140 291L161 386H255L145 660H265L369 408L570 660H714L489 386H582L560 291H416L405 277L395 236H548L526 140H373L340 0H229L263 140H104L127 236H284L294 278L290 291H140Z" />
<glyph unicode="&#xa6;" glyph-name="brokenbar" horiz-adv-x="327" d="M166 708H275V335H166V708ZM166 164H275V-215H166V164Z" />
<glyph unicode="&#xa7;" glyph-name="section" d="M534 530Q432 545 381 545T298 523T267 460Q267 440 282 428T316 409T355 399T379 394Q499 368 499 274Q499 203 416 110Q433 84 433 58T429 7T408 -51T368 -109T297 -153T206 -171Q134 -171 52 -156L24 -151L55
-60Q154 -74 206 -74T292 -49T326 6T309 46Q290 58 218 77T117 124T89 195T108 274Q137 329 181 361Q161 381 161 427T176 507T220 573T297 623T388 643Q456 643 534 627L559 622L534 530ZM232 311T216 281T200 229T214 197T264 178Q322 160 345 150Q355 160 371
193T387 248T370 282T304 304T243 323Q232 311 216 281Z" />
<glyph unicode="&#xa8;" glyph-name="dieresis" horiz-adv-x="586" d="M227 609L254 726H343L316 609H227ZM416 609L442 726H532L504 609H416Z" />
<glyph unicode="&#xa9;" glyph-name="copyright" horiz-adv-x="642" d="M305 155T228 235T151 435T228 633T423 713T616 632T692 433T617 235T423 155ZM205 528T205 434T266 274T420 208T575 273T637 433T575 594T421 661T267 595ZM430 595Q468 595 509 582L503
510Q467 517 438 517T399 500T389 437T399 371T435 351L503 357L509 288Q477 272 419 272T332 308T304 434T333 559T430 595Z" />
<glyph unicode="&#xaa;" glyph-name="ordfeminine" horiz-adv-x="335" d="M294 362Q239 333 192 333T125 360Q113 378 113 398Q113 470 158 504Q189 526 250 529L324 533L330 556Q333 569 324 575T292 582L166 575L177 638Q253 659 318 659T410 636Q429 620 429
596T424 551L392 411Q398 402 412 400L395 332Q340 332 322 339T294 362ZM208 428Q208 406 236 406Q259 406 289 418L299 422L311 474L253 470Q216 467 209 437Q208 432 208 428Z" />
<glyph unicode="&#xab;" glyph-name="guillemotleft" horiz-adv-x="466" d="M542 424L511 317L390 242L474 157L447 59L289 220L308 270L542 424ZM318 424L287 317L166 242L250 157L223 59L65 220L84 270L318 424Z" />
<glyph unicode="&#xac;" glyph-name="logicalnot" horiz-adv-x="560" d="M117 351H550V110H452V254H117V351Z" />
<glyph unicode="&#xae;" glyph-name="registered" horiz-adv-x="642" d="M305 155T228 235T151 435T227 633T422 713T616 632T692 433T617 235T423 155ZM205 528T205 434T267 274T422 208T575 273T637 433T575 594T422 661T268 595ZM385 378V279H305V588H430Q544
588 544 488Q544 450 535 429T501 391L548 279H464L427 378H385ZM384 527V438H426Q467 438 467 482T420 527H384Z" />
<glyph unicode="&#xaf;" glyph-name="overscore" horiz-adv-x="452" d="M222 632L242 720H537L516 632H222Z" />
<glyph unicode="&#xb0;" glyph-name="degree" horiz-adv-x="560" d="M260 485T260 550T301 655T407 696T512 656T553 550T513 445T407 405T301 445ZM325 587T325 550T347 490T407 467T467 490T491 550T468 610T407 634T348 611Z" />
<glyph unicode="&#xb1;" glyph-name="plusminus" horiz-adv-x="560" d="M101 280V378H278V493H376V378H556V280H376V168H278V280H101ZM101 125H556V27H101V125Z" />
<glyph unicode="&#xb2;" glyph-name="twosuperior" horiz-adv-x="280" d="M216 790Q286 800 336 800Q417 800 417 741Q417 658 328 599L269 557H377L358 478H137L155 553L252 624Q311 665 317 692Q321 705 312 710T281 716L199 709L216 790Z" />
<glyph unicode="&#xb3;" glyph-name="threesuperior" horiz-adv-x="280" d="M215 791Q281 800 331 800T400 783T419 747Q419 671 364 642Q390 630 390 597Q390 584 386 567Q361 468 248 468Q204 468 150 474L132 476L157 553Q215 547 252 547T297 574Q298 578
298 582Q298 600 268 600H202L220 672H284Q312 672 319 698Q322 710 315 715T290 721L201 715L215 791Z" />
<glyph unicode="&#xb4;" glyph-name="acute" horiz-adv-x="553" d="M265 585L256 671L504 763L513 666L265 585Z" />
<glyph unicode="&#xb5;" glyph-name="mu" horiz-adv-x="560" d="M233 148Q233 83 285 83Q306 83 336 103T386 145L406 166L483 500H591L476 0H372L383 66Q375 57 362 45T312 11T243 -11T191 -2L142 -215H34L135 227L198 500H306L243 224Q233 179 233 148Z" />
<glyph unicode="&#xb6;" glyph-name="paragraph" horiz-adv-x="561" d="M142 465Q142 556 206 628T368 700H680L659 612H610L464 0H376L522 612H442L296 0H207L283 317Q210 318 176 360T142 465Z" />
<glyph unicode="&#xb7;" glyph-name="middot" horiz-adv-x="159" d="M76 223L109 370H219L186 223H76Z" />
<glyph unicode="&#xb8;" glyph-name="cedilla" horiz-adv-x="791" d="M383 -221Q351 -221 312 -214L301 -212L318 -144Q351 -146 371 -146Q409 -146 416 -117Q420 -101 412 -96T384 -91H355L377 5H423L411 -38H417Q506 -38 506 -99Q506 -110 503 -124Q480 -221 383 -221Z" />
<glyph unicode="&#xb9;" glyph-name="onesuperior" horiz-adv-x="280" d="M195 717L316 790H397L320 478H232L285 693L220 655L195 717Z" />
<glyph unicode="&#xba;" glyph-name="ordmasculine" horiz-adv-x="342" d="M321 659Q368 659 403 642T444 588Q447 573 447 552T439 499Q418 408 373 370T244 332Q185 332 155 361T124 441Q124 444 125 458T133 502Q153 587 198 623T321 659ZM219 432T229 422T267
412T313 431T341 485T351 540Q351 582 304 582Q273 582 255 565T228 511T219 453Z" />
<glyph unicode="&#xbb;" glyph-name="guillemotright" horiz-adv-x="477" d="M271 59L302 166L423 241L339 326L366 424L524 263L505 213L271 59ZM38 59L69 166L190 241L106 326L133 424L291 263L272 213L38 59Z" />
<glyph unicode="&#xbc;" glyph-name="onequarter" horiz-adv-x="617" d="M167 717L288 790H369L292 478H204L257 693L192 655L167 717ZM207 -18L105 18L535 713L636 677L207 -18ZM502 0L512 41H374L392 114L496 312H593L485 120H532L565 209H641L619 120H636L617
41H599L589 0H502Z" />
<glyph unicode="&#xbd;" glyph-name="onehalf" horiz-adv-x="634" d="M167 717L288 790H369L292 478H204L257 693L192 655L167 717ZM207 -18L105 18L535 713L636 677L207 -18ZM477 312Q547 322 598 322Q678 322 678 263Q678 180 589 121L530 79H638L619 0H398L416
75L513 146Q572 187 578 214Q582 227 573 232T542 238L460 231L477 312Z" />
<glyph unicode="&#xbe;" glyph-name="threequarters" horiz-adv-x="621" d="M202 791Q268 800 318 800T387 783T406 747Q406 671 351 642Q377 630 377 597Q377 584 373 567Q348 468 235 468Q191 468 137 474L119 476L144 553Q202 547 239 547T284 574Q288 588
281 594T255 600H189L207 672H271Q283 672 293 679T306 698T302 715T277 721L188 715L202 791ZM212 -18L110 18L540 713L641 677L212 -18ZM507 0L517 41H379L397 114L501 312H598L490 120H537L570 209H646L624 120H641L622 41H604L594 0H507Z" />
<glyph unicode="&#xbf;" glyph-name="questiondown" horiz-adv-x="421" d="M25 -51Q25 19 57 62T182 173Q242 218 250 257L259 297H361Q361 255 354 219Q344 165 257 101Q189 51 165 23T140 -40T161 -87T218 -99Q288 -99 348 -88L369 -84L358 -170Q269 -196 200
-196Q25 -196 25 -51ZM410 500L377 354H267L300 500H410Z" />
<glyph unicode="&#xc0;" glyph-name="Agrave" horiz-adv-x="552" d="M374 941L580 849L531 765L321 846L374 941ZM423 0V143H199L130 0H18L341 685H540L534 0H423ZM406 588L242 241H426L431 588H406Z" />
<glyph unicode="&#xc1;" glyph-name="Aacute" horiz-adv-x="552" d="M369 774L360 859L608 951L618 854L369 774ZM423 0V143H199L130 0H18L341 685H540L534 0H423ZM406 588L242 241H426L431 588H406Z" />
<glyph unicode="&#xc2;" glyph-name="Acircumflex" horiz-adv-x="552" d="M287 785L457 931H520L616 785H517L479 851L402 785H287ZM423 0V143H199L130 0H18L341 685H540L534 0H423ZM406 588L242 241H426L431 588H406Z" />
<glyph unicode="&#xc3;" glyph-name="Atilde" horiz-adv-x="552" d="M524 790Q499 790 447 814T381 838Q359 838 309 806L293 795L290 871Q357 934 401 934Q432 934 483 910T545 886T576 896T614 916L630 927L632 851Q569 790 524 790ZM423 0V143H199L130 0H18L341
685H540L534 0H423ZM406 588L242 241H426L431 588H406Z" />
<glyph unicode="&#xc4;" glyph-name="Adieresis" horiz-adv-x="552" d="M322 799L349 916H439L411 799H322ZM516 799L543 916H633L604 799H516ZM423 0V143H199L130 0H18L341 685H540L534 0H423ZM406 588L242 241H426L431 588H406Z" />
<glyph unicode="&#xc5;" glyph-name="Aring" horiz-adv-x="552" d="M326 678T326 694T331 727Q345 782 383 809T476 837T556 810Q574 792 574 769Q574 708 540 666L534 0H423V143H199L130 0H18L331 665Q326 678 326 694ZM406 588L242 241H426L431 588H406ZM400
720Q400 689 445 689T499 727Q500 732 500 740T489 757T459 766Q412 766 401 727Q400 723 400 720Z" />
<glyph unicode="&#xc6;" glyph-name="AE" horiz-adv-x="765" d="M328 0L362 144H194L125 0H19L343 693H889L866 587L572 589L526 395H763L740 294H502L457 105H750L727 0H328ZM399 588L241 247H387L467 588H399Z" />
<glyph unicode="&#xc7;" glyph-name="Ccedilla" horiz-adv-x="498" d="M305 -11H296L289 -38H295Q384 -38 384 -99Q384 -110 381 -124Q358 -221 261 -221Q229 -221 190 -214L179 -212L196 -144Q229 -146 249 -146Q287 -146 294 -117Q298 -101 290 -96T262 -91H233L252
-7Q105 17 105 186Q105 331 155 457Q182 525 221 577T321 663T454 696Q521 696 598 676L623 669L597 585Q529 599 454 599T325 537T246 384T220 194Q220 86 319 86Q382 86 458 98L481 101L473 13Q382 -11 305 -11Z" />
<glyph unicode="&#xc8;" glyph-name="Egrave" horiz-adv-x="500" d="M350 941L556 849L507 765L297 846L350 941ZM70 0L228 685H621L598 588H317L273 394H499L476 296H251L205 97H487L464 0H70Z" />
<glyph unicode="&#xc9;" glyph-name="Eacute" horiz-adv-x="500" d="M361 774L352 859L600 951L610 854L361 774ZM70 0L228 685H621L598 588H317L273 394H499L476 296H251L205 97H487L464 0H70Z" />
<glyph unicode="&#xca;" glyph-name="Ecircumflex" horiz-adv-x="500" d="M296 786L466 932H529L625 786H526L488 852L411 786H296ZM70 0L228 685H621L598 588H317L273 394H499L476 296H251L205 97H487L464 0H70Z" />
<glyph unicode="&#xcb;" glyph-name="Edieresis" horiz-adv-x="500" d="M306 799L333 916H423L395 799H306ZM500 799L527 916H617L588 799H500ZM70 0L228 685H621L598 588H317L273 394H499L476 296H251L205 97H487L464 0H70Z" />
<glyph unicode="&#xcc;" glyph-name="Igrave" horiz-adv-x="252" d="M199 941L405 849L356 765L146 846L199 941ZM70 0L229 685H340L182 0H70Z" />
<glyph unicode="&#xcd;" glyph-name="Iacute" horiz-adv-x="252" d="M233 774L224 859L472 951L482 854L233 774ZM70 0L229 685H340L182 0H70Z" />
<glyph unicode="&#xce;" glyph-name="Icircumflex" horiz-adv-x="252" d="M137 786L307 932H370L466 786H367L329 852L252 786H137ZM70 0L229 685H340L182 0H70Z" />
<glyph unicode="&#xcf;" glyph-name="Idieresis" horiz-adv-x="252" d="M164 808L191 925H281L253 808H164ZM358 808L385 925H475L446 808H358ZM70 0L229 685H340L182 0H70Z" />
<glyph unicode="&#xd0;" glyph-name="Eth" horiz-adv-x="612" d="M319 0H76L143 290H85L108 400H169L235 685H452Q662 685 662 479Q662 302 580 158Q540 87 472 44T319 0ZM521 296T534 359T547 479T519 562T430 588H323L280 400H404L379 290H255L211 97H330Q384
97 428 136T496 236Z" />
<glyph unicode="&#xd1;" glyph-name="Ntilde" horiz-adv-x="642" d="M565 788Q540 788 488 812T422 836Q400 836 350 804L334 793L331 869Q398 932 442 932Q473 932 524 908T586 884T617 894T655 914L671 925L673 849Q610 788 565 788ZM70 0L229 685H412L478 117H493L622
685H730L572 0H397L325 575H310L176 0H70Z" />
<glyph unicode="&#xd2;" glyph-name="Ograve" horiz-adv-x="620" d="M403 941L609 849L560 765L350 846L403 941ZM221 141T247 114T333 86T435 123Q491 173 523 276T555 479Q555 543 529 571T444 599T347 566Q289 513 255 407T221 221ZM506 48Q430 -11 322 -11T160
39T106 196Q106 326 146 443T264 627Q341 696 452 696Q670 696 670 489Q670 353 629 233T506 48Z" />
<glyph unicode="&#xd3;" glyph-name="Oacute" horiz-adv-x="620" d="M221 141T247 114T333 86T435 123Q491 173 523 276T555 479Q555 543 529 571T444 599T347 566Q289 513 255 407T221 221ZM506 48Q430 -11 322 -11T160 39T106 196Q106 326 146 443T264 627Q341
696 452 696Q670 696 670 489Q670 353 629 233T506 48ZM404 774L395 859L643 951L653 854L404 774Z" />
<glyph unicode="&#xd4;" glyph-name="Ocircumflex" horiz-adv-x="620" d="M221 141T247 114T333 86T435 123Q491 173 523 276T555 479Q555 543 529 571T444 599T347 566Q289 513 255 407T221 221ZM506 48Q430 -11 322 -11T160 39T106 196Q106 326 146 443T264
627Q341 696 452 696Q670 696 670 489Q670 353 629 233T506 48ZM326 785L496 931H559L655 785H556L518 851L441 785H326Z" />
<glyph unicode="&#xd5;" glyph-name="Otilde" horiz-adv-x="620" d="M572 788Q547 788 495 812T429 836Q407 836 357 804L341 793L338 869Q405 932 449 932Q480 932 531 908T593 884T624 894T662 914L678 925L680 849Q617 788 572 788ZM221 141T247 114T333 86T435
123Q491 173 523 276T555 479Q555 543 529 571T444 599T347 566Q289 513 255 407T221 221ZM506 48Q430 -11 322 -11T160 39T106 196Q106 326 146 443T264 627Q341 696 452 696Q670 696 670 489Q670 353 629 233T506 48Z" />
<glyph unicode="&#xd6;" glyph-name="Odieresis" horiz-adv-x="620" d="M343 795L369 911H468L440 795H343ZM540 795L567 911H665L637 795H540ZM221 141T247 114T333 86T435 123Q491 173 523 276T555 479Q555 543 529 571T444 599T347 566Q289 513 255 407T221
221ZM506 48Q430 -11 322 -11T160 39T106 196Q106 326 146 443T264 627Q341 696 452 696Q670 696 670 489Q670 353 629 233T506 48Z" />
<glyph unicode="&#xd7;" glyph-name="multiply" horiz-adv-x="560" d="M190 467L338 317L487 468L555 399L404 250L555 102L486 33L338 184L189 33L120 102L271 250L121 398L190 467Z" />
<glyph unicode="&#xd8;" glyph-name="Oslash" horiz-adv-x="620" d="M106 196Q106 326 146 443T264 627Q341 696 452 696Q524 696 573 672L661 801L724 775L626 632Q670 579 670 489Q670 353 629 233T506 48Q430 -11 320 -11Q250 -11 203 10L116 -118L60 -84L150
49Q106 101 106 196ZM513 583Q487 599 436 599T347 566Q289 513 255 407T221 206Q221 177 225 160L513 583ZM264 100Q292 86 342 86T435 123Q491 173 523 276T555 479Q555 505 551 521L264 100Z" />
<glyph unicode="&#xd9;" glyph-name="Ugrave" horiz-adv-x="594" d="M390 941L596 849L547 765L337 846L390 941ZM227 225Q218 185 218 151Q218 86 320 86Q389 86 420 118T469 222L576 685H688L581 222Q553 100 490 45T320 -11Q107 -11 107 139Q107 181 119 241L222
685H334L227 225Z" />
<glyph unicode="&#xda;" glyph-name="Uacute" horiz-adv-x="594" d="M227 225Q218 185 218 151Q218 86 320 86Q389 86 420 118T469 222L576 685H688L581 222Q553 100 490 45T320 -11Q107 -11 107 139Q107 181 119 241L222 685H334L227 225ZM371 774L362 859L610
951L620 854L371 774Z" />
<glyph unicode="&#xdb;" glyph-name="Ucircumflex" horiz-adv-x="594" d="M227 225Q218 185 218 151Q218 86 320 86Q389 86 420 118T469 222L576 685H688L581 222Q553 100 490 45T320 -11Q107 -11 107 139Q107 181 119 241L222 685H334L227 225ZM307 785L477 931H540L636
785H537L499 851L422 785H307Z" />
<glyph unicode="&#xdc;" glyph-name="Udieresis" horiz-adv-x="594" d="M322 795L349 911H447L420 795H322ZM520 795L546 911H645L617 795H520ZM227 225Q218 185 218 151Q218 86 320 86Q389 86 420 118T469 222L576 685H688L581 222Q553 100 490 45T320 -11Q107
-11 107 139Q107 181 119 241L222 685H334L227 225Z" />
<glyph unicode="&#xdd;" glyph-name="Yacute" horiz-adv-x="499" d="M345 774L336 859L584 951L594 854L345 774ZM652 685L367 291L298 0H194L263 298L163 685H276L338 395L534 685H652Z" />
<glyph unicode="&#xde;" glyph-name="Thorn" horiz-adv-x="543" d="M348 218Q458 218 491 353Q497 377 497 400T486 444Q468 479 409 480L288 482L225 218H348ZM434 589Q535 589 578 522Q606 478 606 419Q606 388 598 353Q574 239 502 174T326 108Q325 108 323
108L199 109L174 0H69L232 693H338L312 589H434Z" />
<glyph unicode="&#xdf;" glyph-name="germandbls" horiz-adv-x="553" d="M208 634T263 676T413 719T555 684T602 590T580 496T508 440T439 405T421 375T433 345T489 305T551 255T568 186Q568 95 512 42T356 -11Q298 -11 232 7L210 13L233 94Q301 81 350 81T429
106T458 172Q458 194 446 207T390 246T329 295T312 361T336 434T410 488T476 529T492 573Q492 626 408 626Q353 626 324 600T281 510L161 0H59L182 524Q208 634 263 676Z" />
<glyph unicode="&#xe0;" glyph-name="agrave" horiz-adv-x="516" d="M219 -11Q150 -11 117 33T84 145T99 273T144 387T223 476T337 511Q393 511 525 489L567 482L492 158L465 2L358 -2Q369 70 373 89Q326 27 266 0Q242 -11 219 -11ZM443 404Q375 419 335 419T260
374Q194 291 194 156Q194 119 207 101T249 82T312 108T369 162L392 189L443 404ZM347 759L552 667L506 588L295 671L347 759Z" />
<glyph unicode="&#xe1;" glyph-name="aacute" horiz-adv-x="516" d="M219 -11Q150 -11 117 33T84 145T99 273T144 387T223 476T337 511Q393 511 525 489L567 482L492 158L465 2L358 -2Q369 70 373 89Q326 27 266 0Q242 -11 219 -11ZM443 404Q375 419 335 419T260
374Q194 291 194 156Q194 119 207 101T249 82T312 108T369 162L392 189L443 404ZM338 585L329 671L577 763L586 666L338 585Z" />
<glyph unicode="&#xe2;" glyph-name="acircumflex" horiz-adv-x="516" d="M224 580L387 745H466L553 580H445L411 654L339 580H224ZM219 -11Q150 -11 117 33T84 145T99 273T144 387T223 476T337 511Q393 511 525 489L567 482L492 158L465 2L358 -2Q369 70 373
89Q326 27 266 0Q242 -11 219 -11ZM443 404Q375 419 335 419T260 374Q194 291 194 156Q194 119 207 101T249 82T312 108T369 162L392 189L443 404Z" />
<glyph unicode="&#xe3;" glyph-name="atilde" horiz-adv-x="516" d="M219 -11Q150 -11 117 33T84 145T99 273T144 387T223 476T337 511Q393 511 525 489L567 482L492 158L465 2L358 -2Q369 70 373 89Q326 27 266 0Q242 -11 219 -11ZM443 404Q375 419 335 419T260
374Q194 291 194 156Q194 119 207 101T249 82T312 108T369 162L392 189L443 404ZM490 600Q466 600 420 623T362 646Q338 646 292 616L277 605L275 681Q339 741 383 741Q411 741 456 719T512 696Q530 696 576 726L592 736L596 659Q534 600 490 600Z" />
<glyph unicode="&#xe4;" glyph-name="adieresis" horiz-adv-x="516" d="M252 609L279 726H378L350 609H252ZM450 609L476 726H575L547 609H450ZM219 -11Q150 -11 117 33T84 145T99 273T144 387T223 476T337 511Q393 511 525 489L567 482L492 158L465 2L358 -2Q369
70 373 89Q326 27 266 0Q242 -11 219 -11ZM443 404Q375 419 335 419T260 374Q194 291 194 156Q194 119 207 101T249 82T312 108T369 162L392 189L443 404Z" />
<glyph unicode="&#xe5;" glyph-name="aring" horiz-adv-x="516" d="M219 -11Q150 -11 117 33T84 145T99 273T144 387T223 476T337 511Q393 511 525 489L567 482L492 158L465 2L358 -2Q369 70 373 89Q326 27 266 0Q242 -11 219 -11ZM443 404Q375 419 335 419T260
374Q194 291 194 156Q194 119 207 101T249 82T312 108T369 162L392 189L443 404ZM344 703T377 732T455 762T518 735Q530 717 530 698T527 664Q519 614 485 585T404 555T340 584Q329 601 329 621T334 659Q344 703 377 732ZM424 694T412 684T396 664T393 647T399
631T421 621T450 632Q468 647 468 662Q468 694 440 694Q424 694 412 684Z" />
<glyph unicode="&#xe6;" glyph-name="ae" horiz-adv-x="729" d="M448 157Q448 88 525 88Q597 88 670 94L698 97L679 12Q584 -11 491 -11T361 40Q325 24 264 7T167 -11Q104 -11 76 38Q56 70 56 99T61 149Q88 275 223 297Q295 309 368 309Q377 337 377 361Q377 408
334 408Q263 408 182 398L153 395L170 492Q291 510 362 510Q449 510 474 455Q530 510 621 510Q771 510 771 366Q771 320 757 275L738 203L453 205Q448 175 448 157ZM164 131Q164 83 204 83Q251 83 338 107Q336 119 336 145T349 226Q285 222 245 217Q180 210 167
152Q164 141 164 131ZM659 287Q668 319 668 336T667 361Q662 416 597 416Q546 416 517 385T472 289L659 287Z" />
<glyph unicode="&#xe7;" glyph-name="ccedilla" horiz-adv-x="408" d="M349 511Q406 511 468 492L488 485L460 405Q388 417 345 417Q274 417 236 345T198 178T285 83Q328 83 376 91L394 94L386 12Q320 -9 255 -11L248 -38H254Q343 -38 343 -99Q343 -110 340 -124Q317
-221 220 -221Q188 -221 149 -214L138 -212L155 -144Q188 -146 208 -146Q246 -146 253 -117Q257 -101 249 -96T221 -91H192L211 -8Q152 1 120 42T87 153Q87 307 155 409T349 511Z" />
<glyph unicode="&#xe8;" glyph-name="egrave" horiz-adv-x="470" d="M194 120T217 101T274 82Q346 82 416 94L442 99L431 17Q340 -11 247 -11Q85 -11 85 151Q85 293 148 396Q180 448 234 479T357 510Q521 510 521 373Q521 281 456 245T242 209H200Q194 187 194
154ZM260 291Q344 291 379 309T414 372Q414 422 352 422Q248 422 213 291H260ZM260 759L465 667L419 588L208 671L260 759Z" />
<glyph unicode="&#xe9;" glyph-name="eacute" horiz-adv-x="470" d="M194 120T217 101T274 82Q346 82 416 94L442 99L431 17Q340 -11 247 -11Q85 -11 85 151Q85 293 148 396Q180 448 234 479T357 510Q521 510 521 373Q521 281 456 245T242 209H200Q194 187 194
154ZM260 291Q344 291 379 309T414 372Q414 422 352 422Q248 422 213 291H260ZM290 585L281 671L529 763L538 666L290 585Z" />
<glyph unicode="&#xea;" glyph-name="ecircumflex" horiz-adv-x="470" d="M200 580L362 745H442L528 580H421L386 654L315 580H200ZM194 120T217 101T274 82Q346 82 416 94L442 99L431 17Q340 -11 247 -11Q85 -11 85 151Q85 293 148 396Q180 448 234 479T357 510Q521
510 521 373Q521 281 456 245T242 209H200Q194 187 194 154ZM260 291Q344 291 379 309T414 372Q414 422 352 422Q248 422 213 291H260Z" />
<glyph unicode="&#xeb;" glyph-name="edieresis" horiz-adv-x="470" d="M229 609L256 726H354L327 609H229ZM427 609L453 726H552L524 609H427ZM194 120T217 101T274 82Q346 82 416 94L442 99L431 17Q340 -11 247 -11Q85 -11 85 151Q85 293 148 396Q180 448 234
479T357 510Q521 510 521 373Q521 281 456 245T242 209H200Q194 187 194 154ZM260 291Q344 291 379 309T414 372Q414 422 352 422Q248 422 213 291H260Z" />
<glyph unicode="&#xec;" glyph-name="igrave" horiz-adv-x="227" d="M60 0L175 500H283L168 0H60ZM126 759L331 667L285 588L74 671L126 759Z" />
<glyph unicode="&#xed;" glyph-name="iacute" horiz-adv-x="227" d="M60 0L175 500H283L168 0H60ZM187 585L178 671L426 763L435 666L187 585Z" />
<glyph unicode="&#xee;" glyph-name="icircumflex" horiz-adv-x="227" d="M75 580L238 745H317L404 580H296L262 654L190 580H75ZM60 0L175 500H283L168 0H60Z" />
<glyph unicode="&#xef;" glyph-name="idieresis" horiz-adv-x="227" d="M95 609L122 726H220L193 609H95ZM293 609L319 726H418L390 609H293ZM60 0L175 500H283L168 0H60Z" />
<glyph unicode="&#xf0;" glyph-name="eth" horiz-adv-x="523" d="M578 451Q578 406 565 355Q519 165 446 78T248 -9Q149 -9 106 52Q76 94 76 149Q76 173 82 199Q100 304 170 369T339 435Q399 435 450 414L467 407Q470 423 470 438Q470 520 384 564L276 492L238
552L302 594Q253 607 225 613L262 708Q358 697 418 672L519 740L555 679L488 634Q578 568 578 451ZM323 336Q273 336 237 298T193 200Q190 182 190 168Q190 95 273 95Q393 95 445 308Q436 317 395 326T323 336Z" />
<glyph unicode="&#xf1;" glyph-name="ntilde" horiz-adv-x="506" d="M395 417T370 417T309 392T245 334L168 0H60L175 500H279L268 434L287 453Q306 472 341 491T410 511Q471 511 500 475T530 386T509 249L452 0H344L400 241Q418 325 418 355T407 401ZM465 600Q441
600 395 623T337 646Q313 646 268 616L252 605L250 681Q314 741 358 741Q386 741 431 719T486 696Q505 696 552 726L567 736L571 659Q509 600 465 600Z" />
<glyph unicode="&#xf2;" glyph-name="ograve" horiz-adv-x="495" d="M337 510Q524 510 524 330Q524 244 496 168T409 40T270 -11Q85 -11 85 167Q85 253 115 330T204 459T337 510ZM270 81Q335 81 375 157T416 331Q416 372 396 395T337 418Q273 418 233 341T193
166Q193 81 270 81ZM289 759L494 667L448 588L237 671L289 759Z" />
<glyph unicode="&#xf3;" glyph-name="oacute" horiz-adv-x="495" d="M337 510Q524 510 524 330Q524 244 496 168T409 40T270 -11Q85 -11 85 167Q85 253 115 330T204 459T337 510ZM270 81Q335 81 375 157T416 331Q416 372 396 395T337 418Q273 418 233 341T193
166Q193 81 270 81ZM291 585L282 671L530 763L539 666L291 585Z" />
<glyph unicode="&#xf4;" glyph-name="ocircumflex" horiz-adv-x="495" d="M215 580L378 745H457L544 580H436L402 654L330 580H215ZM337 510Q524 510 524 330Q524 244 496 168T409 40T270 -11Q85 -11 85 167Q85 253 115 330T204 459T337 510ZM270 81Q335 81 375
157T416 331Q416 372 396 395T337 418Q273 418 233 341T193 166Q193 81 270 81Z" />
<glyph unicode="&#xf5;" glyph-name="otilde" horiz-adv-x="495" d="M337 510Q524 510 524 330Q524 244 496 168T409 40T270 -11Q85 -11 85 167Q85 253 115 330T204 459T337 510ZM270 81Q335 81 375 157T416 331Q416 372 396 395T337 418Q273 418 233 341T193
166Q193 81 270 81ZM444 600Q420 600 374 623T316 646Q292 646 246 616L231 605L229 681Q293 741 337 741Q364 741 410 719T466 696Q484 696 530 726L546 736L550 659Q488 600 444 600Z" />
<glyph unicode="&#xf6;" glyph-name="odieresis" horiz-adv-x="495" d="M337 510Q524 510 524 330Q524 244 496 168T409 40T270 -11Q85 -11 85 167Q85 253 115 330T204 459T337 510ZM270 81Q335 81 375 157T416 331Q416 372 396 395T337 418Q273 418 233 341T193
166Q193 81 270 81ZM243 609L270 726H359L332 609H243ZM432 609L458 726H548L520 609H432Z" />
<glyph unicode="&#xf7;" glyph-name="divide" horiz-adv-x="560" d="M163 241V351H231V428H444V351H513V241H163ZM283 23V141H391V23H283Z" />
<glyph unicode="&#xf8;" glyph-name="oslash" horiz-adv-x="495" d="M338 512Q383 512 424 499L489 605L548 579L477 468Q525 422 525 334T497 170T410 42T271 -9Q222 -9 186 3L117 -109L58 -83L133 34Q86 78 86 166T116 332T205 461T338 512ZM271 83Q336 83 376
159T417 333Q417 350 412 367L329 237L238 88Q253 83 271 83ZM338 420Q274 420 234 343T194 168Q194 148 198 135L279 263L372 414Q357 420 338 420Z" />
<glyph unicode="&#xf9;" glyph-name="ugrave" horiz-adv-x="506" d="M292 759L497 667L451 588L240 671L292 759ZM212 -11Q151 -11 122 25T92 123Q92 160 112 251L169 500H277L222 259Q204 187 204 148Q204 83 256 83Q277 83 307 103T357 145L377 166L454 500H562L447
0H343L354 66Q346 57 333 45T283 11T212 -11Z" />
<glyph unicode="&#xfa;" glyph-name="uacute" horiz-adv-x="506" d="M212 -11Q151 -11 122 25T92 123Q92 160 112 251L169 500H277L222 259Q204 187 204 148Q204 83 256 83Q277 83 307 103T357 145L377 166L454 500H562L447 0H343L354 66Q346 57 333 45T283 11T212
-11ZM298 585L289 671L537 763L546 666L298 585Z" />
<glyph unicode="&#xfb;" glyph-name="ucircumflex" horiz-adv-x="506" d="M207 580L369 745H449L535 580H428L393 654L322 580H207ZM212 -11Q151 -11 122 25T92 123Q92 160 112 251L169 500H277L222 259Q204 187 204 148Q204 83 256 83Q277 83 307 103T357 145L377
166L454 500H562L447 0H343L354 66Q346 57 333 45T283 11T212 -11Z" />
<glyph unicode="&#xfc;" glyph-name="udieresis" horiz-adv-x="506" d="M230 609L257 726H355L328 609H230ZM428 609L454 726H552L525 609H428ZM212 -11Q151 -11 122 25T92 123Q92 160 112 251L169 500H277L222 259Q204 187 204 148Q204 83 256 83Q277 83 307
103T357 145L377 166L454 500H562L447 0H343L354 66Q346 57 333 45T283 11T212 -11Z" />
<glyph unicode="&#xfd;" glyph-name="yacute" horiz-adv-x="460" d="M131 500H238L233 90H255L448 500H558L212 -215H103L211 0H135L131 500ZM280 585L271 671L519 763L528 666L280 585Z" />
<glyph unicode="&#xfe;" glyph-name="thorn" horiz-adv-x="490" d="M270 461Q331 510 387 510T476 486T517 426T526 369T525 324T512 256Q473 110 411 50T241 -11Q207 -11 183 -8T159 -4L110 -213H8L225 706H327L270 461ZM419 358T405 384T355 410Q335 410 307
398T262 374L245 362L182 94L261 86Q317 86 351 128T408 257Q419 297 419 327Z" />
<glyph unicode="&#xff;" glyph-name="ydieresis" horiz-adv-x="460" d="M211 609L238 726H336L309 609H211ZM409 609L435 726H533L506 609H409ZM131 500H238L233 90H255L448 500H558L212 -215H103L211 0H135L131 500Z" />
<glyph unicode="&#x2013;" glyph-name="endash" horiz-adv-x="556" d="M90 313H590V220H90V313Z" />
<glyph unicode="&#x2014;" glyph-name="emdash" horiz-adv-x="1056" d="M90 313H1090V220H90V313Z" />
<glyph unicode="&#x2018;" glyph-name="quoteleft" horiz-adv-x="177" d="M241 684H322L223 443H115L241 684Z" />
<glyph unicode="&#x2019;" glyph-name="quoteright" horiz-adv-x="177" d="M197 444H116L215 685H323L197 444Z" />
<glyph unicode="&#x201a;" glyph-name="quotesinglbase" horiz-adv-x="160" d="M37 -152H-44L55 89H163L37 -152Z" />
<glyph unicode="&#x201c;" glyph-name="quotedblleft" horiz-adv-x="352" d="M240 685H321L222 444H114L240 685ZM416 685H497L398 444H290L416 685Z" />
<glyph unicode="&#x201d;" glyph-name="quotedblright" horiz-adv-x="353" d="M197 444H116L215 685H323L197 444ZM373 444H292L391 685H499L373 444Z" />
<glyph unicode="&#x201e;" glyph-name="quotedblbase" horiz-adv-x="337" d="M258 86H339L240 -155H132L258 86ZM62 86H143L44 -155H-64L62 86Z" />
<glyph unicode="&#x2022;" glyph-name="bullet" horiz-adv-x="470" d="M166 103V385H416V103H166Z" />
<glyph unicode="&#x2039;" glyph-name="guilsinglleft" horiz-adv-x="242" d="M318 424L287 317L166 242L250 157L223 59L65 220L84 270L318 424Z" />
<glyph unicode="&#x203a;" glyph-name="guilsinglright" horiz-adv-x="244" d="M38 59L69 166L190 241L106 326L133 424L291 263L272 213L38 59Z" />
</font>
</defs>
</svg>
