<?xml version="1.0" standalone="no"?>
<!DOCTYPE svg PUBLIC "-//W3C//DTD SVG 1.1//EN" "http://www.w3.org/Graphics/SVG/1.1/DTD/svg11.dtd">
<svg xmlns="http://www.w3.org/2000/svg">
<defs >
<font id="TitilliumWeb" horiz-adv-x="485" ><font-face
    font-family="Titillium Web ExtraLight"
    units-per-em="1000"
    panose-1="0 0 3 0 0 0 0 0 0 0"
    ascent="1133"
    descent="-388"
    alphabetic="0" />
<glyph unicode=" " glyph-name="space" horiz-adv-x="220" />
<glyph unicode="!" glyph-name="exclam" horiz-adv-x="225" d="M93 0V80H133V0H93ZM95 214V700H130V214H95Z" />
<glyph unicode="&quot;" glyph-name="quotedbl" horiz-adv-x="348" d="M271 490H238L235 700H274L271 490ZM110 490H77L74 700H113L110 490Z" />
<glyph unicode="#" glyph-name="numbersign" horiz-adv-x="560" d="M530 190H410V0H374V190H186V0H150V190H30V222H150V448H30V480H150V670H186V480H374V670H410V480H530V448H410V222H530V190ZM374 222V448H186V222H374Z" />
<glyph unicode="$" glyph-name="dollar" horiz-adv-x="560" d="M484 191Q484 84 435 39T285 -7Q270 -7 261 -6L247 -120Q212 -117 212 -113L226 -5L83 8L87 41Q164 31 230 27L269 326Q167 342 124 376T80 503Q80 669 283 669Q303 669 314 668L330 790H365L349
666L470 654L466 621Q401 629 344 633L308 355Q402 339 443 305T484 191ZM115 505Q115 429 150 402T273 360L310 636Q299 637 283 637Q115 637 115 505ZM284 25Q449 25 449 178Q449 253 417 280T304 321L265 25H284Z" />
<glyph unicode="%" glyph-name="percent" horiz-adv-x="560" d="M175 -1L360 669L392 660L206 -9L175 -1ZM38 669T141 669T244 535Q244 466 216 432T141 397T66 431T38 536Q38 669 141 669ZM73 536Q73 429 141 429T209 535Q209 587 194 612T142 637T89 612T73
536ZM317 263T420 263T523 129Q523 60 495 26T420 -9T345 25T317 130Q317 263 420 263ZM352 130Q352 23 420 23T488 129Q488 181 473 206T421 231T368 206T352 130Z" />
<glyph unicode="&amp;" glyph-name="ampersand" horiz-adv-x="680" d="M159 615T198 654T313 694T427 655T465 547T427 437T300 367L487 182Q498 212 508 268T522 367H557Q546 237 514 156L654 19L630 -7L499 123Q433 -9 277 -9Q151 -9 99 46T47 199T85 340T210
409Q178 444 169 474T159 550Q159 615 198 654ZM279 24Q416 24 473 148L236 383Q150 360 116 323T82 201T128 70T279 24ZM194 550Q194 472 239 427L275 391Q362 421 396 454T430 550Q430 662 312 662T194 550Z" />
<glyph unicode="&apos;" glyph-name="quotesingle" horiz-adv-x="187" d="M76 490L74 700H114L109 490H76Z" />
<glyph unicode="(" glyph-name="parenleft" horiz-adv-x="234" d="M96 385T96 302T120 112T168 -60L191 -125H156Q145 -100 129 -57T86 99T59 301T83 502T132 682L156 750H191Q157 661 127 523Z" />
<glyph unicode=")" glyph-name="parenright" horiz-adv-x="234" d="M176 390T176 301T152 106T104 -63L79 -125H44Q78 -41 108 88T139 301T116 497T68 680L44 750H79Q90 722 106 675T149 509Z" />
<glyph unicode="*" glyph-name="asterisk" horiz-adv-x="417" d="M362 519H225L267 390L235 380L193 510L83 431L64 458L174 538L65 618L85 645L195 564L237 693L269 683L227 553H362V519Z" />
<glyph unicode="+" glyph-name="plus" horiz-adv-x="560" d="M59 234V268H261V480H297V268H501V234H297V20H261V234H59Z" />
<glyph unicode="," glyph-name="comma" horiz-adv-x="197" d="M44 -123L86 87H126L75 -123H44Z" />
<glyph unicode="-" glyph-name="hyphen" horiz-adv-x="458" d="M76 264V298H383V264H76Z" />
<glyph unicode="." glyph-name="period" horiz-adv-x="190" d="M75 0V80H115V0H75Z" />
<glyph unicode="/" glyph-name="slash" horiz-adv-x="376" d="M33 12L310 702L343 688L66 -1L33 12Z" />
<glyph unicode="0" glyph-name="zero" horiz-adv-x="560" d="M142 639T182 654T280 670T378 655T450 600Q510 526 510 316Q510 130 448 58Q417 22 377 7T280 -9T184 6T112 56Q49 127 49 315Q49 524 110 600Q142 639 182 654ZM428 584T388 610T280 636T172 610Q87
556 87 314Q87 143 139 81Q165 50 198 38T288 25T384 47T448 135T472 321T450 513Z" />
<glyph unicode="1" glyph-name="one" horiz-adv-x="560" d="M369 660V0H333V621L146 495L129 524L333 660H369Z" />
<glyph unicode="2" glyph-name="two" horiz-adv-x="560" d="M490 0H72V31L299 273Q348 325 371 352T412 419T431 500Q431 573 390 604T263 635Q195 635 111 616L83 609L78 643Q171 669 268 669T417 630T469 500Q469 433 439 384T338 261L121 32H490V0Z" />
<glyph unicode="3" glyph-name="three" horiz-adv-x="560" d="M79 648Q174 670 277 670T426 631T472 505Q472 470 461 442T433 398T400 371Q371 353 359 353Q424 336 457 300T491 174Q491 -9 283 -9Q194 -9 96 8L66 14L72 48Q177 25 283 25Q453 26 453 179Q453
261 410 294T291 332H157V366H290Q339 366 386 403T434 508T399 606T275 636T110 620L85 614L79 648Z" />
<glyph unicode="4" glyph-name="four" horiz-adv-x="560" d="M387 0V142H40V172L245 660H284L83 176H387V395H423V176H521V142H423V0H387Z" />
<glyph unicode="5" glyph-name="five" horiz-adv-x="560" d="M468 660V624H130L112 361Q146 381 198 396T291 412Q499 412 499 220Q499 107 442 50T281 -7Q192 -7 102 11L72 17L77 51Q187 27 275 27T412 77T461 220Q461 378 290 378Q250 378 206 364T136 336L111
323L77 327L96 660H468Z" />
<glyph unicode="6" glyph-name="six" horiz-adv-x="560" d="M472 626Q390 635 299 635T153 565T98 358L126 370Q155 381 203 393T290 406Q508 406 508 208Q508 105 451 48T284 -9Q60 -9 60 337Q60 505 125 587T306 669Q380 669 452 662L476 659L472 626ZM289 372Q248
372 200 360T124 336L97 323Q102 25 284 25Q375 25 422 72T470 204T423 331T289 372Z" />
<glyph unicode="7" glyph-name="seven" horiz-adv-x="560" d="M83 626V660H485V595L217 -9L182 5L447 603V626H83Z" />
<glyph unicode="8" glyph-name="eight" horiz-adv-x="560" d="M278 670Q389 670 452 630T515 505Q515 440 482 404T379 348Q449 328 487 290T525 179Q525 75 459 33T281 -9T102 32T34 168Q34 244 67 282T169 348Q107 370 76 406T45 506Q45 670 278 670ZM278 25Q376
25 431 59T487 178Q487 255 440 286Q415 303 392 311T331 330H214Q144 313 109 277T73 169Q73 25 278 25ZM476 574T425 605T279 636T133 606T83 511T114 414T214 363H331Q404 380 440 413T476 510Z" />
<glyph unicode="9" glyph-name="nine" horiz-adv-x="560" d="M247 25Q354 25 407 91T461 300Q347 256 259 256Q50 256 50 451Q50 551 110 610T270 669Q387 669 443 579T499 316T436 67T247 -9Q165 -9 101 -1L77 2L81 35Q163 25 247 25ZM261 290Q296 290 346 301T430
324L462 335Q455 635 270 635Q186 635 137 585T88 451T131 329T261 290Z" />
<glyph unicode=":" glyph-name="colon" horiz-adv-x="191" d="M75 344V424H115V344H75ZM75 0V80H115V0H75Z" />
<glyph unicode=";" glyph-name="semicolon" horiz-adv-x="228" d="M103 87H145L93 -123H62L103 87ZM100 344V424H140V344H100Z" />
<glyph unicode="&lt;" glyph-name="less" horiz-adv-x="560" d="M481 446L90 251L481 56V15L57 233V269L481 485V446Z" />
<glyph unicode="=" glyph-name="equal" horiz-adv-x="560" d="M68 318V352H492V318H68ZM68 149V183H492V149H68Z" />
<glyph unicode="&gt;" glyph-name="greater" horiz-adv-x="560" d="M469 251L78 446V485L502 269V233L78 15V56L469 251Z" />
<glyph unicode="?" glyph-name="question" horiz-adv-x="453" d="M407 551Q407 490 389 458T321 382T256 323T224 281T208 228V190H174Q173 212 173 233T181 275T208 320Q238 353 287 397T354 471T372 551Q372 620 332 648T207 676Q164 676 76 655L46 648L41 682Q153
709 207 709Q306 709 356 673T407 551ZM171 1V81H211V1H171Z" />
<glyph unicode="@" glyph-name="at" horiz-adv-x="979" d="M925 305V288Q925 109 890 50Q878 28 867 17T836 -1Q806 -10 771 -10T714 -4T682 12Q660 33 655 53Q614 29 557 10T470 -9T422 -7T378 10T336 49T308 124T295 243Q295 379 341 444T505 509Q558 509 616
489L637 482V500H672V300Q672 100 686 64Q691 50 702 38T728 23T768 20T807 23T840 40T867 82Q888 146 888 288V306Q888 507 800 597T502 687T194 591T97 261Q97 137 121 54T197 -77T323 -146T504 -167L647 -157L650 -190Q552 -199 504 -199Q388 -199 309 -178T172
-104Q60 -5 60 251T168 613T503 719T827 620T925 305ZM399 36T418 30T466 23T541 38T618 68L648 83Q637 197 637 300V450Q564 477 505 477Q404 477 367 420T330 240Q330 99 377 56Q399 36 418 30Z" />
<glyph unicode="A" glyph-name="A" horiz-adv-x="592" d="M28 0L243 700H349L564 0H528L463 215H129L64 0H28ZM268 666L140 249H452L324 666H268Z" />
<glyph unicode="B" glyph-name="B" horiz-adv-x="620" d="M92 700H332Q534 700 534 527Q534 397 437 361Q561 327 561 193Q561 85 508 43T351 0H92V700ZM343 341H128V34H351Q434 34 479 69T524 193Q524 341 343 341ZM332 666H128V375H343Q424 375 460 412T497
524T457 632T332 666Z" />
<glyph unicode="C" glyph-name="C" horiz-adv-x="545" d="M501 11Q401 -9 321 -9T191 14T114 87T77 197T67 338T72 469T93 568T136 645Q196 709 316 709Q404 709 501 690L498 655Q402 675 332 675T222 659T161 618T126 548T109 458T105 347T109 236T126 148T162
80Q213 25 316 25Q394 25 498 45L501 11Z" />
<glyph unicode="D" glyph-name="D" horiz-adv-x="649" d="M352 0H92V700H352Q416 700 462 672T535 595T574 487T586 358T574 227T535 114T462 31T352 0ZM528 189T538 243T548 369T532 505T469 618T352 666H128V34H352Q406 34 445 63T506 140Z" />
<glyph unicode="E" glyph-name="E" horiz-adv-x="552" d="M92 0V700H501V666H128V375H441V341H128V34H501V0H92Z" />
<glyph unicode="F" glyph-name="F" horiz-adv-x="523" d="M92 0V700H493V666H128V350H442V316H128V0H92Z" />
<glyph unicode="G" glyph-name="G" horiz-adv-x="619" d="M361 313V347H547V16Q418 -9 327 -9Q180 -9 123 80T65 347Q65 434 76 496T116 609Q172 709 327 709Q416 709 516 690L547 684L544 649Q418 675 338 675T213 653T145 585T112 484T103 348T112 212T146 112Q193
25 327 25Q401 25 511 45V313H361Z" />
<glyph unicode="H" glyph-name="H" horiz-adv-x="674" d="M546 0V334H128V0H92V700H128V368H546V700H582V0H546Z" />
<glyph unicode="I" glyph-name="I" horiz-adv-x="220" d="M92 0V700H128V0H92Z" />
<glyph unicode="J" glyph-name="J" horiz-adv-x="280" d="M191 700V81Q191 3 172 -26Q161 -43 150 -52T116 -66Q82 -73 18 -73V-39Q115 -39 131 -22Q151 0 153 30T155 96V700H191Z" />
<glyph unicode="K" glyph-name="K" horiz-adv-x="553" d="M128 329V0H92V700H128V363H257L477 700H520L289 348L536 0H490L259 329H128Z" />
<glyph unicode="L" glyph-name="L" horiz-adv-x="483" d="M469 0H92V700H128V34H469V0Z" />
<glyph unicode="M" glyph-name="M" horiz-adv-x="828" d="M92 0V700H168L414 55L660 700H736V0H700V666H686L440 21H388L142 666H128V0H92Z" />
<glyph unicode="N" glyph-name="N" horiz-adv-x="665" d="M92 0V700H177L510 34H537V700H573V0H488L154 666H128V0H92Z" />
<glyph unicode="O" glyph-name="O" horiz-adv-x="666" d="M170 65T216 45T333 25T450 43T520 104T554 203T563 347Q563 515 515 595T333 675Q194 675 146 588Q122 544 113 488T103 347T112 207T145 109ZM118 82Q88 130 77 192T65 347Q65 531 123 620T333 709T543
621T601 344T545 74T331 -9T118 82Z" />
<glyph unicode="P" glyph-name="P" horiz-adv-x="595" d="M347 257H128V0H92V700H347Q455 700 504 648T554 485Q554 257 347 257ZM128 291H347Q516 291 516 485Q516 577 476 621T347 666H128V291Z" />
<glyph unicode="Q" glyph-name="Q" horiz-adv-x="666" d="M443 5Q395 -9 324 -9T200 13T118 82T77 192T65 347Q65 531 123 620T333 709T543 621T601 347Q601 210 575 132T480 19L566 -121L530 -138L443 5ZM170 65T216 45T333 25T450 43T520 104T554 203T563 347Q563
515 515 595T333 675Q194 675 146 588Q122 544 113 488T103 347T112 207T145 109Z" />
<glyph unicode="R" glyph-name="R" horiz-adv-x="613" d="M128 290V0H92V700H343Q449 700 500 652T551 500Q551 323 406 295L564 0H523L367 290H128ZM513 500Q513 587 472 626T343 666H128V324H343Q513 324 513 500Z" />
<glyph unicode="S" glyph-name="S" horiz-adv-x="540" d="M272 677Q94 677 94 537Q94 474 115 446Q127 431 140 421T178 402Q219 390 282 380Q391 363 438 328T486 203Q486 90 434 42T274 -7Q208 -7 97 5L60 9L64 44Q202 27 282 27Q448 27 448 200Q448 273 410
301T293 341T180 362T115 392T70 446T56 535Q56 711 272 711Q341 711 438 699L471 695L467 660Q330 677 272 677Z" />
<glyph unicode="T" glyph-name="T" horiz-adv-x="526" d="M13 666V700H513V666H282V0H246V666H13Z" />
<glyph unicode="U" glyph-name="U" horiz-adv-x="638" d="M124 196Q124 105 173 65T317 25T463 64T514 196V700H550V196Q550 87 491 39T318 -9T146 39T88 196V700H124V196Z" />
<glyph unicode="V" glyph-name="V" horiz-adv-x="568" d="M502 700H538L342 0H226L30 700H66L252 34H316L502 700Z" />
<glyph unicode="W" glyph-name="W" horiz-adv-x="856" d="M38 700H74L214 34H253L406 690H450L603 34H642L782 700H818L671 0H575L428 641L281 0H185L38 700Z" />
<glyph unicode="X" glyph-name="X" horiz-adv-x="551" d="M68 700L276 374L483 700H526L303 347L526 0H483L277 322L68 0H25L251 347L25 700H68Z" />
<glyph unicode="Y" glyph-name="Y" horiz-adv-x="526" d="M281 0H245V301L17 700H59L263 341L467 700H509L281 301V0Z" />
<glyph unicode="Z" glyph-name="Z" horiz-adv-x="539" d="M44 666V700H494V630L81 55V33H494V-1H44V68L457 642V666H44Z" />
<glyph unicode="[" glyph-name="bracketleft" horiz-adv-x="311" d="M268 749V717H121V-91H268V-123H86V749H268Z" />
<glyph unicode="\" glyph-name="backslash" horiz-adv-x="395" d="M365 14L330 0L29 687L64 701L365 14Z" />
<glyph unicode="]" glyph-name="bracketright" horiz-adv-x="311" d="M43 717V749H225V-123H43V-91H190V717H43Z" />
<glyph unicode="^" glyph-name="asciicircum" horiz-adv-x="560" d="M447 323L280 624L122 323H82L262 660H298L487 323H447Z" />
<glyph unicode="_" glyph-name="underscore" horiz-adv-x="640" d="M106 -104H534V-138H106V-104Z" />
<glyph unicode="`" glyph-name="grave" horiz-adv-x="215" d="M26 732L218 636L203 609L10 701L26 732Z" />
<glyph unicode="a" glyph-name="a" horiz-adv-x="495" d="M411 353V65Q415 29 486 23L484 -8Q411 -8 381 34Q279 -9 179 -9Q117 -9 83 28T48 133T81 238T186 281L376 301V353Q376 417 349 446T265 475Q208 475 107 462L76 458L73 491Q185 509 265 509Q411 509
411 353ZM133 244T109 217T85 136T109 53T178 23T271 33T348 54L376 64V269L190 250Q133 244 109 217Z" />
<glyph unicode="b" glyph-name="b" horiz-adv-x="514" d="M113 469Q196 509 289 509T419 451T455 252T408 51T227 -9Q157 -9 100 -2L78 0V730H113V469ZM113 29Q191 23 239 23T326 36T385 81T411 152T418 258Q418 376 391 426T285 477Q245 477 202 467T136 447L113
437V29Z" />
<glyph unicode="c" glyph-name="c" horiz-adv-x="429" d="M265 477Q170 477 134 429T97 254T130 75T265 23L385 32L387 0Q303 -9 265 -9Q143 -9 102 48T60 252T106 454T265 509L385 499L383 467Q303 477 265 477Z" />
<glyph unicode="d" glyph-name="d" horiz-adv-x="515" d="M436 730V0H401V42Q372 23 320 7T236 -9T186 -7T142 9T100 48T71 123T58 242Q58 378 104 443T269 509Q326 509 401 497V730H436ZM163 36T182 30T234 23T309 36T377 62L401 75V465Q323 477 269 477Q168
477 132 420T95 242Q95 98 141 56Q163 36 182 30Z" />
<glyph unicode="e" glyph-name="e" horiz-adv-x="502" d="M399 30L429 32L431 0Q319 -9 246 -9Q140 -8 99 55T58 250Q58 509 260 509Q355 509 402 452T450 269V236H95Q95 128 129 76T242 23T399 30ZM95 268H413Q413 381 377 429T260 477Q95 477 95 268Z" />
<glyph unicode="f" glyph-name="f" horiz-adv-x="313" d="M133 468V0H98V468H29V500H98V561Q98 666 126 702T225 739L317 736V705Q253 707 225 707Q172 707 153 678T133 560V500H295V468H133Z" />
<glyph unicode="g" glyph-name="g" horiz-adv-x="501" d="M469 -166T419 -202T252 -239T97 -206T58 -80Q58 -23 96 11Q110 24 143 48Q121 62 121 113Q121 127 144 175L151 191Q65 219 65 343Q65 510 236 510Q288 510 328 500L342 497L482 500V465H374Q414 428
414 341T371 216T232 179Q202 179 178 183Q155 126 155 111T157 88T165 73T188 64Q219 59 305 59T430 32T469 -81ZM94 -79Q94 -153 125 -180T253 -207T391 -179T432 -82T402 7T290 27L169 30Q124 -1 109 -22T94 -79ZM101 269T132 240T238 211T345 239T377 343T346
448T239 478T132 448T101 343Z" />
<glyph unicode="h" glyph-name="h" horiz-adv-x="526" d="M114 0H79V730H114V470Q202 509 295 509T420 459T452 260V0H417V258Q417 390 393 433T288 477Q248 477 205 467T138 447L114 437V0Z" />
<glyph unicode="i" glyph-name="i" horiz-adv-x="193" d="M79 0V500H114V0H79ZM79 645V700H114V645H79Z" />
<glyph unicode="j" glyph-name="j" horiz-adv-x="192" d="M79 6V500H114V5Q114 -80 83 -124T-45 -218L-59 -187Q28 -140 53 -106T79 6ZM79 645V700H114V645H79Z" />
<glyph unicode="k" glyph-name="k" horiz-adv-x="455" d="M114 0H79V730H114V289H210L382 500H424L240 274L432 0H390L210 257H114V0Z" />
<glyph unicode="l" glyph-name="l" horiz-adv-x="205" d="M85 0V730H120V0H85Z" />
<glyph unicode="m" glyph-name="m" horiz-adv-x="834" d="M114 0H79V500H114V460Q123 465 138 473T196 495T286 509Q378 509 412 455Q448 476 500 492T596 509Q696 509 728 459T760 260V0H725V258Q725 390 701 433T596 477Q553 477 510 465T446 440L424 428Q442
379 442 260V0H407V258Q407 390 383 433T278 477Q238 477 197 465T135 440L114 427V0Z" />
<glyph unicode="n" glyph-name="n" horiz-adv-x="527" d="M114 0H79V500H114V460Q203 509 296 509T421 459T453 260V0H418V258Q418 390 394 433T289 477Q249 477 206 465T138 440L114 427V0Z" />
<glyph unicode="o" glyph-name="o" horiz-adv-x="526" d="M152 509T263 509T420 453T466 251T425 48T263 -9T101 48T60 251T106 453ZM207 23T263 23T351 34T401 77T424 148T429 259Q429 385 394 431T263 477T132 431T97 259Q97 188 102 149T124 78T174 35Z" />
<glyph unicode="p" glyph-name="p" horiz-adv-x="516" d="M79 -230V500H114V458Q143 477 195 493T287 509Q377 509 417 448T458 252T410 54T246 -9Q178 -9 114 5V-230H79ZM287 477Q249 477 206 464T138 437L114 424V37Q191 23 246 23Q342 23 381 76T421 252T388
426T287 477Z" />
<glyph unicode="q" glyph-name="q" horiz-adv-x="514" d="M400 29Q327 -9 233 -9T99 51T58 248T108 446T286 509L435 500V-230H400V29ZM287 477Q175 477 135 423T95 249T126 77T238 23Q278 23 318 33T380 53L400 63V471Q322 477 287 477Z" />
<glyph unicode="r" glyph-name="r" horiz-adv-x="328" d="M79 0V500H114V422Q144 446 203 473T312 510V474Q268 465 219 444T142 406L114 389V0H79Z" />
<glyph unicode="s" glyph-name="s" horiz-adv-x="461" d="M222 477Q88 477 88 377Q88 330 116 311T240 276T374 236T412 136T364 26T222 -9Q171 -9 86 3L57 7L61 40Q169 23 233 23T336 48T375 133T345 212T220 245T88 284T51 367T78 456T141 498T216 509Q297 509
368 498L394 494L392 461Q290 477 222 477Z" />
<glyph unicode="t" glyph-name="t" horiz-adv-x="342" d="M325 468H143V206Q143 91 159 57T235 22L333 30L336 -2Q270 -10 235 -10Q164 -10 136 26T108 168V468H29V500H108V663H143V500H325V468Z" />
<glyph unicode="u" glyph-name="u" horiz-adv-x="516" d="M402 500H437V0H402V40Q393 35 378 27T320 5T238 -9Q138 -9 106 41T74 240V500H109V242Q109 110 133 67T238 23Q278 23 319 35T381 60L402 73V500Z" />
<glyph unicode="v" glyph-name="v" horiz-adv-x="470" d="M31 500H72L213 32H257L402 500H439L284 0H186L31 500Z" />
<glyph unicode="w" glyph-name="w" horiz-adv-x="756" d="M36 500H73L200 32H211L359 490H397L545 32H556L683 500H720L585 0H517L378 448L239 0H171L36 500Z" />
<glyph unicode="x" glyph-name="x" horiz-adv-x="437" d="M28 500H69L218 277L368 500H409L239 250L408 0H367L218 223L69 0H28L197 250L28 500Z" />
<glyph unicode="y" glyph-name="y" horiz-adv-x="471" d="M31 500H68L215 32H256L404 500H441L212 -230H175L247 0H186L31 500Z" />
<glyph unicode="z" glyph-name="z" horiz-adv-x="455" d="M42 468V500H413V468L87 32H413V0H42V32L369 468H42Z" />
<glyph unicode="{" glyph-name="braceleft" horiz-adv-x="346" d="M168 169Q161 99 161 53Q161 -18 192 -53T304 -92L302 -124Q207 -120 167 -79T126 53L133 176Q133 224 110 251T29 294V326Q86 340 109 368T133 446L126 574Q126 664 166 705T302 751L304 719Q222
715 192 681T161 574L168 455Q168 390 146 360T68 311Q124 293 146 262T168 169Z" />
<glyph unicode="|" glyph-name="bar" horiz-adv-x="205" d="M85 -230V730H120V-230H85Z" />
<glyph unicode="}" glyph-name="braceright" horiz-adv-x="346" d="M185 53Q185 99 178 169Q178 231 200 262T278 311Q222 329 200 359T178 455L185 574Q185 646 155 680T42 719L44 751Q139 747 179 706T220 574Q220 574 213 446Q213 396 236 368T317 326V294Q260
278 237 251T213 176L220 53Q220 -37 180 -78T44 -124L42 -92Q123 -88 154 -53T185 53Z" />
<glyph unicode="~" glyph-name="asciitilde" horiz-adv-x="560" d="M381 212Q351 212 278 248T186 285T143 272T100 246L82 233L71 265Q133 319 183 319Q213 319 286 283T378 246T421 259T464 285L482 298L493 267Q431 212 381 212Z" />
<glyph unicode="&#xa0;" glyph-name="uni00A0" horiz-adv-x="220" />
<glyph unicode="&#xa1;" glyph-name="exclamdown" horiz-adv-x="204" d="M121 500V420H81V500H121ZM119 286V-200H84V286H119Z" />
<glyph unicode="&#xa2;" glyph-name="cent" horiz-adv-x="560" d="M284 -85V41Q188 44 149 86T109 244T150 408T283 461V591H318V460Q358 460 415 451L434 448L432 415Q352 425 294 425Q214 425 182 385T149 246T180 112T304 77Q356 77 414 83L434 85L436 50Q362
42 319 41V-85H284Z" />
<glyph unicode="&#xa3;" glyph-name="sterling" horiz-adv-x="560" d="M312 637Q250 637 230 601T210 454V406H392V374H210V34H384L466 50L473 18L391 0H83V34H175V374H106V406H175V458Q175 584 204 626T312 669Q346 669 410 660L432 657V625Q345 637 312 637Z" />
<glyph unicode="&#xa4;" glyph-name="currency" horiz-adv-x="560" d="M341 82T280 82T173 120L103 49L77 75L148 145Q110 191 110 252T148 359L77 429L103 455L173 384Q219 422 280 422T387 384L457 455L483 429L412 359Q450 313 450 252T412 145L483 75L457
49L387 120Q341 82 280 82ZM225 118T280 118T374 157T414 252T375 346T280 386T186 347T146 252T185 158Z" />
<glyph unicode="&#xa5;" glyph-name="yen" horiz-adv-x="560" d="M57 331V365H228L35 660H76L281 351L483 660H525L334 365H502V331H312L299 311V216H503V182H299V0H263V182H58V216H263V311L250 331H57Z" />
<glyph unicode="&#xa6;" glyph-name="brokenbar" horiz-adv-x="209" d="M87 730H122V354H87V730ZM87 146H122V-230H87V146Z" />
<glyph unicode="&#xa7;" glyph-name="section" horiz-adv-x="487" d="M247 628Q107 628 107 518Q107 453 139 431T256 395T381 353T421 255Q421 226 412 195T392 146L382 128Q418 100 418 29T374 -83T245 -123Q201 -123 106 -113L77 -110L80 -78Q190 -92 245 -92Q383
-92 383 34Q383 91 352 109T233 140T104 182T62 283Q62 313 75 343T102 388L116 403Q72 436 72 512Q72 660 247 660Q310 660 378 650L403 647L401 615Q295 628 247 628ZM141 389Q97 336 97 284T132 207T246 171T356 144Q386 196 386 252T354 330T245 364T141 389Z"
/>
<glyph unicode="&#xa8;" glyph-name="dieresis" horiz-adv-x="215" d="M0 638V700H35V638H0ZM190 638V700H225V638H190Z" />
<glyph unicode="&#xa9;" glyph-name="copyright" horiz-adv-x="647" d="M68 323T68 434T141 622T323 700T505 623T579 434T506 246T323 169T141 246ZM100 532T100 434T163 269T323 201T483 268T547 434T483 600T323 668T164 600ZM323 281Q261 281 238 319T214
433T237 548T323 587Q362 587 387 582L397 580L396 548Q355 555 323 555Q274 555 260 527T246 435T262 342T323 313L396 321L397 289Q354 281 323 281Z" />
<glyph unicode="&#xaa;" glyph-name="ordfeminine" horiz-adv-x="366" d="M270 571V437Q281 420 307 414L305 386Q273 387 251 408Q188 386 132 386Q101 386 82 408T62 466Q62 536 137 542L239 549V572Q239 603 227 616T187 629L83 622L81 651Q150 659 190 659T250
639T270 571ZM95 464Q95 417 135 417T223 430L239 435V520L142 514Q117 513 106 501T95 464Z" />
<glyph unicode="&#xab;" glyph-name="guillemotleft" horiz-adv-x="497" d="M215 360L80 254L215 137V96L48 234V270L215 399V360ZM422 360L287 254L422 137V96L255 234V270L422 399V360Z" />
<glyph unicode="&#xac;" glyph-name="logicalnot" horiz-adv-x="560" d="M71 332H493V126H457V298H71V332Z" />
<glyph unicode="&#xae;" glyph-name="registered" horiz-adv-x="647" d="M68 323T68 434T141 622T323 700T505 623T579 434T506 246T323 169T141 246ZM100 532T100 434T163 269T323 201T483 268T547 434T483 600T323 668T164 600ZM253 402V286H221V581H314Q373
581 400 561T427 492Q427 420 368 405L433 286H398L332 402H253ZM253 550V433H333Q367 433 381 446T395 492T376 537T315 550H253Z" />
<glyph unicode="&#xaf;" glyph-name="overscore" horiz-adv-x="215" d="M-20 642V674H247V642H-20Z" />
<glyph unicode="&#xb0;" glyph-name="degree" horiz-adv-x="560" d="M144 512T144 573T181 671T280 709T378 672T416 573T379 475T280 438T182 475ZM178 620T178 573T206 498T280 470T355 498T384 573T355 648T280 677T206 649Z" />
<glyph unicode="&#xb1;" glyph-name="plusminus" horiz-adv-x="560" d="M59 308V342H261V480H297V342H501V308H297V164H261V308H59ZM59 84H501V50H59V84Z" />
<glyph unicode="&#xb2;" glyph-name="twosuperior" horiz-adv-x="280" d="M230 478H36V509L134 616Q167 651 177 673T188 718T172 754T136 767Q101 767 56 760L41 757L39 786Q90 799 132 799Q223 799 223 714Q223 681 209 656T159 594L79 511H230V478Z" />
<glyph unicode="&#xb3;" glyph-name="threesuperior" horiz-adv-x="280" d="M41 788Q94 799 141 799T210 780T233 728T222 675Q204 646 187 643Q216 635 229 619T242 562Q242 469 144 469Q96 469 53 477L37 480L40 511Q94 502 135 502T191 518T207 561Q207 623
147 623H82V656H147Q165 656 181 675T198 719Q198 766 140 766Q94 766 58 760L44 757L41 788Z" />
<glyph unicode="&#xb4;" glyph-name="acute" horiz-adv-x="268" d="M40 636L232 732L248 701L55 609L40 636Z" />
<glyph unicode="&#xb5;" glyph-name="mu" horiz-adv-x="560" d="M426 500H461V0H426V40Q417 35 402 27T344 5T262 -9Q166 -9 133 36V-230H98V500H133V242Q133 110 157 67T262 23Q302 23 343 35T405 60L426 73V500Z" />
<glyph unicode="&#xb6;" glyph-name="paragraph" horiz-adv-x="589" d="M421 0V667H269V0H233V350H226Q147 350 94 398T40 524T93 650T226 700H554V667H457V0H421Z" />
<glyph unicode="&#xb7;" glyph-name="middot" horiz-adv-x="191" d="M76 270V350H116V270H76Z" />
<glyph unicode="&#xb8;" glyph-name="cedilla" horiz-adv-x="263" d="M213 -127Q213 -201 131 -201L50 -197L52 -169Q96 -173 130 -173Q178 -173 178 -127Q178 -85 130 -85H76V1H109V-57Q165 -57 189 -72T213 -127Z" />
<glyph unicode="&#xb9;" glyph-name="onesuperior" horiz-adv-x="280" d="M180 790V478H145V751L63 695L46 723L145 790H180Z" />
<glyph unicode="&#xba;" glyph-name="ordmasculine" horiz-adv-x="353" d="M177 659Q235 659 262 627T290 524Q290 386 177 386Q62 386 62 522T177 659ZM134 418T177 418T238 442T256 524T238 604T177 627T115 604T96 524T115 443Z" />
<glyph unicode="&#xbb;" glyph-name="guillemotright" horiz-adv-x="497" d="M417 254L282 360V399L449 270V234L282 96V137L417 254ZM210 254L75 360V399L242 270V234L75 96V137L210 254Z" />
<glyph unicode="&#xbc;" glyph-name="onequarter" horiz-adv-x="525" d="M183 790V478H148V751L66 695L49 723L148 790H183ZM39 28L431 659L461 640L69 10L39 28ZM414 -100V-43H268V-12L357 212H395L308 -10H414V78H450V-10H487V-43H450V-100H414Z" />
<glyph unicode="&#xbd;" glyph-name="onehalf" horiz-adv-x="520" d="M190 790V478H155V751L73 695L56 723L155 790H190ZM36 28L428 659L458 640L66 10L36 28ZM469 -100H275V-69L373 38Q406 73 416 95T427 140T411 176T375 189Q340 189 295 182L280 179L278 208Q329
221 371 221Q462 221 462 136Q462 103 448 78T398 16L318 -67H469V-100Z" />
<glyph unicode="&#xbe;" glyph-name="threequarters" horiz-adv-x="543" d="M58 28L450 659L480 640L88 10L58 28ZM62 788Q115 799 162 799T231 780T254 728T243 675Q228 650 208 643Q237 635 250 618T263 562Q263 469 165 469Q117 469 74 477L58 480L61 511Q115
502 156 502T212 518T228 561Q228 623 168 623H103V656H168Q186 656 202 675T219 719Q219 766 161 766Q115 766 79 760L65 757L62 788ZM433 -100V-43H287V-12L376 212H414L327 -10H433V78H469V-10H506V-43H469V-100H433Z" />
<glyph unicode="&#xbf;" glyph-name="questiondown" horiz-adv-x="447" d="M43 -50Q43 11 61 43T129 119T194 178T226 220T242 273V311H276Q277 289 277 268T269 226T242 182Q212 148 163 104T96 30T78 -50Q78 -119 118 -147T243 -175Q286 -175 374 -154L404 -147L409
-181Q297 -208 243 -208Q144 -208 94 -172T43 -50ZM279 500V420H239V500H279Z" />
<glyph unicode="&#xc0;" glyph-name="Agrave" horiz-adv-x="592" d="M28 0L243 700H349L564 0H528L463 215H129L64 0H28ZM268 666L140 249H452L324 666H268ZM193 922L385 826L370 799L177 891L193 922Z" />
<glyph unicode="&#xc1;" glyph-name="Aacute" horiz-adv-x="592" d="M28 0L243 700H349L564 0H528L463 215H129L64 0H28ZM268 666L140 249H452L324 666H268ZM202 826L394 922L410 891L217 799L202 826Z" />
<glyph unicode="&#xc2;" glyph-name="Acircumflex" horiz-adv-x="592" d="M28 0L243 700H349L564 0H528L463 215H129L64 0H28ZM268 666L140 249H452L324 666H268ZM146 809L280 934H310L444 809H399L295 905L192 809H146Z" />
<glyph unicode="&#xc3;" glyph-name="Atilde" horiz-adv-x="592" d="M28 0L243 700H349L564 0H528L463 215H129L64 0H28ZM268 666L140 249H452L324 666H268ZM447 885Q408 833 381 833T294 863T221 893Q199 893 163 854L151 841L141 870Q185 924 218 924Q241 924
301 895T374 865Q392 865 425 901L436 913L447 885Z" />
<glyph unicode="&#xc4;" glyph-name="Adieresis" horiz-adv-x="592" d="M28 0L243 700H349L564 0H528L463 215H129L64 0H28ZM268 666L140 249H452L324 666H268ZM180 838V900H215V838H180ZM376 838V900H411V838H376Z" />
<glyph unicode="&#xc5;" glyph-name="Aring" horiz-adv-x="592" d="M338 851T364 827T391 756T354 683L564 0H528L463 215H129L64 0H28L237 681Q197 705 197 753T223 826T294 851ZM268 666L140 249H452L324 666H268ZM230 759Q230 711 270 700H317Q358 711 358
759Q358 789 341 805T294 821T247 805T230 759Z" />
<glyph unicode="&#xc6;" glyph-name="AE" horiz-adv-x="879" d="M419 0V215H143L65 0H25L276 700H828V666H455V378H768V344H455V34H828V0H419ZM419 249V666H304L155 249H419Z" />
<glyph unicode="&#xc7;" glyph-name="Ccedilla" horiz-adv-x="545" d="M431 -127Q431 -201 349 -201L268 -197L270 -169Q314 -173 348 -173Q396 -173 396 -127Q396 -85 348 -85H294V-8Q186 -2 133 59Q85 115 72 228Q67 279 67 348T72 469T93 568T136 645Q196 709
316 709Q404 709 501 690L498 655Q402 675 332 675T222 659T161 618T126 548T109 458T105 347T109 236T126 148T162 80Q213 25 316 25Q394 25 498 45L501 11Q411 -8 327 -9V-57Q383 -57 407 -72T431 -127Z" />
<glyph unicode="&#xc8;" glyph-name="Egrave" horiz-adv-x="552" d="M92 0V700H501V666H128V375H441V341H128V34H501V0H92ZM205 922L397 826L382 799L189 891L205 922Z" />
<glyph unicode="&#xc9;" glyph-name="Eacute" horiz-adv-x="552" d="M92 0V700H501V666H128V375H441V341H128V34H501V0H92ZM192 826L384 922L400 891L207 799L192 826Z" />
<glyph unicode="&#xca;" glyph-name="Ecircumflex" horiz-adv-x="552" d="M92 0V700H501V666H128V375H441V341H128V34H501V0H92ZM142 809L276 934H306L440 809H395L291 905L188 809H142Z" />
<glyph unicode="&#xcb;" glyph-name="Edieresis" horiz-adv-x="552" d="M92 0V700H501V666H128V375H441V341H128V34H501V0H92ZM180 838V900H215V838H180ZM376 838V900H411V838H376Z" />
<glyph unicode="&#xcc;" glyph-name="Igrave" horiz-adv-x="220" d="M92 0V700H128V0H92ZM-2 922L190 826L175 799L-18 891L-2 922Z" />
<glyph unicode="&#xcd;" glyph-name="Iacute" horiz-adv-x="220" d="M92 0V700H128V0H92ZM17 826L209 922L225 891L32 799L17 826Z" />
<glyph unicode="&#xce;" glyph-name="Icircumflex" horiz-adv-x="220" d="M92 0V700H128V0H92ZM-45 809L89 934H119L253 809H208L104 905L1 809H-45Z" />
<glyph unicode="&#xcf;" glyph-name="Idieresis" horiz-adv-x="220" d="M92 0V700H128V0H92ZM-6 838V900H29V838H-6ZM190 838V900H225V838H190Z" />
<glyph unicode="&#xd0;" glyph-name="Eth" horiz-adv-x="651" d="M17 334V368H94V700H354Q418 700 464 672T538 595Q588 502 588 360Q588 219 537 115Q511 62 464 31T354 0H94V334H17ZM550 300T550 360T540 471T509 568T448 640T354 666H130V368H307V334H130V34H354Q408
34 447 63T508 141T540 245Z" />
<glyph unicode="&#xd1;" glyph-name="Ntilde" horiz-adv-x="665" d="M92 0V700H177L510 34H537V700H573V0H488L154 666H128V0H92ZM485 885Q446 833 419 833T332 863T259 893Q237 893 201 854L189 841L179 870Q223 924 256 924Q279 924 339 895T412 865Q430 865
463 901L474 913L485 885Z" />
<glyph unicode="&#xd2;" glyph-name="Ograve" horiz-adv-x="666" d="M170 65T216 45T333 25T450 43T520 104T554 203T563 347Q563 515 515 595T333 675Q194 675 146 588Q122 544 113 488T103 347T112 207T145 109ZM118 82Q88 130 77 192T65 347Q65 531 123 620T333
709T543 621T601 344T545 74T331 -9T118 82ZM242 922L434 826L419 799L226 891L242 922Z" />
<glyph unicode="&#xd3;" glyph-name="Oacute" horiz-adv-x="666" d="M170 65T216 45T333 25T450 43T520 104T554 203T563 347Q563 515 515 595T333 675Q194 675 146 588Q122 544 113 488T103 347T112 207T145 109ZM118 82Q88 130 77 192T65 347Q65 531 123 620T333
709T543 621T601 344T545 74T331 -9T118 82ZM219 826L411 922L427 891L234 799L219 826Z" />
<glyph unicode="&#xd4;" glyph-name="Ocircumflex" horiz-adv-x="666" d="M170 65T216 45T333 25T450 43T520 104T554 203T563 347Q563 515 515 595T333 675Q194 675 146 588Q122 544 113 488T103 347T112 207T145 109ZM118 82Q88 130 77 192T65 347Q65 531 123
620T333 709T543 621T601 344T545 74T331 -9T118 82ZM184 809L318 934H348L482 809H437L333 905L230 809H184Z" />
<glyph unicode="&#xd5;" glyph-name="Otilde" horiz-adv-x="666" d="M170 65T216 45T333 25T450 43T520 104T554 203T563 347Q563 515 515 595T333 675Q194 675 146 588Q122 544 113 488T103 347T112 207T145 109ZM118 82Q88 130 77 192T65 347Q65 531 123 620T333
709T543 621T601 344T545 74T331 -9T118 82ZM482 885Q443 833 416 833T329 863T256 893Q234 893 198 854L186 841L176 870Q220 924 253 924Q276 924 336 895T408 865Q429 865 460 901L471 913L482 885Z" />
<glyph unicode="&#xd6;" glyph-name="Odieresis" horiz-adv-x="666" d="M170 65T216 45T333 25T450 43T520 104T554 203T563 347Q563 515 515 595T333 675Q194 675 146 588Q122 544 113 488T103 347T112 207T145 109ZM118 82Q88 130 77 192T65 347Q65 531 123
620T333 709T543 621T601 344T545 74T331 -9T118 82ZM218 838V900H253V838H218ZM414 838V900H449V838H414Z" />
<glyph unicode="&#xd7;" glyph-name="multiply" horiz-adv-x="560" d="M105 450L280 274L455 450L479 426L303 251L479 76L455 52L280 228L105 52L81 76L257 251L81 426L105 450Z" />
<glyph unicode="&#xd8;" glyph-name="Oslash" horiz-adv-x="666" d="M333 -9Q253 -9 199 14L141 -109L111 -98L170 29Q111 68 88 145T65 347Q65 531 123 620T333 709Q419 709 475 680L528 792L558 780L503 662Q557 621 579 544T601 347Q601 156 545 74T333 -9ZM122
544T113 488T103 333T121 166T186 63L460 647Q410 675 337 675T217 654T147 589ZM214 46Q260 25 332 25T450 43T520 104T554 203T563 347Q563 559 486 627L214 46Z" />
<glyph unicode="&#xd9;" glyph-name="Ugrave" horiz-adv-x="638" d="M124 196Q124 105 173 65T317 25T463 64T514 196V700H550V196Q550 87 491 39T318 -9T146 39T88 196V700H124V196ZM226 922L418 826L403 799L210 891L226 922Z" />
<glyph unicode="&#xda;" glyph-name="Uacute" horiz-adv-x="638" d="M124 196Q124 105 173 65T317 25T463 64T514 196V700H550V196Q550 87 491 39T318 -9T146 39T88 196V700H124V196ZM215 826L407 922L423 891L230 799L215 826Z" />
<glyph unicode="&#xdb;" glyph-name="Ucircumflex" horiz-adv-x="638" d="M124 196Q124 105 173 65T317 25T463 64T514 196V700H550V196Q550 87 491 39T318 -9T146 39T88 196V700H124V196ZM169 809L303 934H333L467 809H422L318 905L215 809H169Z" />
<glyph unicode="&#xdc;" glyph-name="Udieresis" horiz-adv-x="638" d="M124 196Q124 105 173 65T317 25T463 64T514 196V700H550V196Q550 87 491 39T318 -9T146 39T88 196V700H124V196ZM204 838V900H239V838H204ZM400 838V900H435V838H400Z" />
<glyph unicode="&#xdd;" glyph-name="Yacute" horiz-adv-x="526" d="M281 0H245V301L17 700H59L263 341L467 700H509L281 301V0ZM190 826L382 922L398 891L205 799L190 826Z" />
<glyph unicode="&#xde;" glyph-name="Thorn" horiz-adv-x="601" d="M347 169Q516 169 516 367Q516 459 477 501T347 544H128V169H347ZM347 135H128V0H92V700H128V578H347Q455 578 504 527T554 367Q554 135 347 135Z" />
<glyph unicode="&#xdf;" glyph-name="germandbls" horiz-adv-x="549" d="M114 0H79V561Q79 661 118 700T252 739T383 707T421 603Q421 551 405 521T350 474T300 447T288 422T305 393T385 346T477 280T506 186Q506 83 460 37T306 -9Q271 -9 211 -2L191 1L193 34Q270
25 306 25Q396 25 432 62T468 181Q468 234 444 262T354 323T270 375T251 421T268 464T322 497T371 537T383 610T354 682T251 705T145 674T114 548V0Z" />
<glyph unicode="&#xe0;" glyph-name="agrave" horiz-adv-x="495" d="M411 353V65Q415 29 486 23L484 -8Q411 -8 381 34Q279 -9 179 -9Q117 -9 83 28T48 133T81 238T186 281L376 301V353Q376 417 349 446T265 475Q208 475 107 462L76 458L73 491Q185 509 265 509Q411
509 411 353ZM133 244T109 217T85 136T109 53T178 23T271 33T348 54L376 64V269L190 250Q133 244 109 217ZM149 732L341 636L326 609L133 701L149 732Z" />
<glyph unicode="&#xe1;" glyph-name="aacute" horiz-adv-x="495" d="M411 353V65Q415 29 486 23L484 -8Q411 -8 381 34Q279 -9 179 -9Q117 -9 83 28T48 133T81 238T186 281L376 301V353Q376 417 349 446T265 475Q208 475 107 462L76 458L73 491Q185 509 265 509Q411
509 411 353ZM133 244T109 217T85 136T109 53T178 23T271 33T348 54L376 64V269L190 250Q133 244 109 217ZM132 636L324 732L340 701L147 609L132 636Z" />
<glyph unicode="&#xe2;" glyph-name="acircumflex" horiz-adv-x="495" d="M411 353V65Q415 29 486 23L484 -8Q411 -8 381 34Q279 -9 179 -9Q117 -9 83 28T48 133T81 238T186 281L376 301V353Q376 417 349 446T265 475Q208 475 107 462L76 458L73 491Q185 509 265
509Q411 509 411 353ZM133 244T109 217T85 136T109 53T178 23T271 33T348 54L376 64V269L190 250Q133 244 109 217ZM103 600L224 732H252L374 600H331L239 700L146 600H103Z" />
<glyph unicode="&#xe3;" glyph-name="atilde" horiz-adv-x="495" d="M411 353V65Q415 29 486 23L484 -8Q411 -8 381 34Q279 -9 179 -9Q117 -9 83 28T48 133T81 238T186 281L376 301V353Q376 417 349 446T265 475Q208 475 107 462L76 458L73 491Q185 509 265 509Q411
509 411 353ZM133 244T109 217T85 136T109 53T178 23T271 33T348 54L376 64V269L190 250Q133 244 109 217ZM392 673Q350 630 324 630T243 657T175 684Q153 684 115 650L102 639L92 668Q141 715 174 715Q195 715 250 689T318 662Q338 662 372 692L383 703L392 673Z"
/>
<glyph unicode="&#xe4;" glyph-name="adieresis" horiz-adv-x="495" d="M411 353V65Q415 29 486 23L484 -8Q411 -8 381 34Q279 -9 179 -9Q117 -9 83 28T48 133T81 238T186 281L376 301V353Q376 417 349 446T265 475Q208 475 107 462L76 458L73 491Q185 509 265
509Q411 509 411 353ZM133 244T109 217T85 136T109 53T178 23T271 33T348 54L376 64V269L190 250Q133 244 109 217ZM132 638V700H167V638H132ZM322 638V700H357V638H322Z" />
<glyph unicode="&#xe5;" glyph-name="aring" horiz-adv-x="495" d="M411 353V65Q415 29 486 23L484 -8Q411 -8 381 34Q279 -9 179 -9Q117 -9 83 28T48 133T81 238T186 281L376 301V353Q376 417 349 446T265 475Q208 475 107 462L76 458L73 491Q185 509 265 509Q411
509 411 353ZM133 244T109 217T85 136T109 53T178 23T271 33T348 54L376 64V269L190 250Q133 244 109 217ZM153 610T153 650T181 717T249 745T316 718T343 650T316 583T249 555T181 582ZM187 676T187 650T205 605T248 586T292 605T310 650T292 694T249 713T205
695Z" />
<glyph unicode="&#xe6;" glyph-name="ae" horiz-adv-x="818" d="M715 30L745 32L747 0Q635 -9 562 -9Q464 -9 419 49L381 33Q288 -9 175 -9Q48 -9 48 137Q48 217 87 244T233 286L376 301V353Q376 417 349 446T265 475Q214 475 108 468L77 466L75 499Q185 509 265
509Q380 509 404 413Q453 509 576 509Q671 509 718 452T766 269V236H411Q411 128 445 76T558 23T715 30ZM85 82T109 53T175 23T273 35Q350 52 404 74Q374 133 374 268L190 250Q135 245 110 218T85 137ZM411 268H729Q729 381 693 429T576 477Q411 477 411 268Z"
/>
<glyph unicode="&#xe7;" glyph-name="ccedilla" horiz-adv-x="429" d="M348 -127Q348 -201 266 -201L185 -197L187 -169Q231 -173 265 -173Q313 -173 313 -127Q313 -85 265 -85H211V-6Q122 5 91 64T60 261T106 454T265 509L385 499L383 467Q303 477 265 477Q170
477 134 429T97 254T130 75T265 23L385 32L387 0Q303 -9 277 -9T244 -8V-57Q300 -57 324 -72T348 -127Z" />
<glyph unicode="&#xe8;" glyph-name="egrave" horiz-adv-x="502" d="M399 30L429 32L431 0Q319 -9 246 -9Q140 -8 99 55T58 250Q58 509 260 509Q355 509 402 452T450 269V236H95Q95 128 129 76T242 23T399 30ZM95 268H413Q413 381 377 429T260 477Q95 477 95 268ZM144
733L336 637L321 610L128 702L144 733Z" />
<glyph unicode="&#xe9;" glyph-name="eacute" horiz-adv-x="502" d="M399 30L429 32L431 0Q319 -9 246 -9Q140 -8 99 55T58 250Q58 509 260 509Q355 509 402 452T450 269V236H95Q95 128 129 76T242 23T399 30ZM95 268H413Q413 381 377 429T260 477Q95 477 95 268ZM171
636L363 732L379 701L186 609L171 636Z" />
<glyph unicode="&#xea;" glyph-name="ecircumflex" horiz-adv-x="502" d="M399 30L429 32L431 0Q319 -9 246 -9Q140 -8 99 55T58 250Q58 509 260 509Q355 509 402 452T450 269V236H95Q95 128 129 76T242 23T399 30ZM95 268H413Q413 381 377 429T260 477Q95 477
95 268ZM128 600L249 732H277L399 600H356L264 700L171 600H128Z" />
<glyph unicode="&#xeb;" glyph-name="edieresis" horiz-adv-x="502" d="M399 30L429 32L431 0Q319 -9 246 -9Q140 -8 99 55T58 250Q58 509 260 509Q355 509 402 452T450 269V236H95Q95 128 129 76T242 23T399 30ZM95 268H413Q413 381 377 429T260 477Q95 477 95
268ZM144 638V700H179V638H144ZM334 638V700H369V638H334Z" />
<glyph unicode="&#xec;" glyph-name="igrave" horiz-adv-x="193" d="M79 0V500H114V0H79ZM-44 732L148 636L133 609L-60 701L-44 732Z" />
<glyph unicode="&#xed;" glyph-name="iacute" horiz-adv-x="193" d="M43 636L235 732L251 701L58 609L43 636ZM79 500H114V0H79V500Z" />
<glyph unicode="&#xee;" glyph-name="icircumflex" horiz-adv-x="193" d="M79 500H114V0H79V500ZM-39 600L82 732H110L232 600H189L97 700L4 600H-39Z" />
<glyph unicode="&#xef;" glyph-name="idieresis" horiz-adv-x="193" d="M79 500H114V0H79V500ZM-19 638V700H16V638H-19ZM171 638V700H206V638H171Z" />
<glyph unicode="&#xf0;" glyph-name="eth" horiz-adv-x="535" d="M303 657Q475 546 475 350T426 73T260 -9Q159 -9 102 49T45 208T100 367T249 425Q284 425 331 414T408 392L438 381Q433 537 271 636L152 556L132 583L238 655Q178 686 105 708L118 739Q205 713
270 676L372 745L392 718L303 657ZM439 346Q323 391 248 391T127 342T81 208T127 74T266 25T398 94T439 346Z" />
<glyph unicode="&#xf1;" glyph-name="ntilde" horiz-adv-x="527" d="M79 0V500H114V460L138 472Q163 484 207 496T289 509Q389 509 421 459T453 260V0H418V258Q418 390 394 433T289 477Q249 477 197 461T114 427V0H79ZM425 673Q383 630 357 630T276 657T208 684Q186
684 148 650L135 639L125 668Q174 715 207 715Q228 715 283 689T350 662Q371 662 404 692L416 703L425 673Z" />
<glyph unicode="&#xf2;" glyph-name="ograve" horiz-adv-x="526" d="M152 509T263 509T420 453T466 251T425 48T263 -9T101 48T60 251T106 453ZM207 23T263 23T351 34T401 77T424 148T429 259Q429 385 394 431T263 477T132 431T97 259Q97 188 102 149T124 78T174
35ZM170 732L362 636L347 609L154 701L170 732Z" />
<glyph unicode="&#xf3;" glyph-name="oacute" horiz-adv-x="526" d="M152 509T263 509T420 453T466 251T425 48T263 -9T101 48T60 251T106 453ZM207 23T263 23T351 34T401 77T424 148T429 259Q429 385 394 431T263 477T132 431T97 259Q97 188 102 149T124 78T174
35ZM179 636L371 732L387 701L194 609L179 636Z" />
<glyph unicode="&#xf4;" glyph-name="ocircumflex" horiz-adv-x="526" d="M152 509T263 509T420 453T466 251T425 48T263 -9T101 48T60 251T106 453ZM207 23T263 23T351 34T401 77T424 148T429 259Q429 385 394 431T263 477T132 431T97 259Q97 188 102 149T124
78T174 35ZM128 600L249 732H277L399 600H356L264 700L171 600H128Z" />
<glyph unicode="&#xf5;" glyph-name="otilde" horiz-adv-x="526" d="M152 509T263 509T420 453T466 251T425 48T263 -9T101 48T60 251T106 453ZM207 23T263 23T351 34T401 77T424 148T429 259Q429 385 394 431T263 477T132 431T97 259Q97 188 102 149T124 78T174
35ZM414 673Q372 630 346 630T265 657T197 684Q175 684 137 650L124 639L114 668Q163 715 196 715Q217 715 272 689T340 662Q360 662 394 692L405 703L414 673Z" />
<glyph unicode="&#xf6;" glyph-name="odieresis" horiz-adv-x="526" d="M152 509T263 509T420 453T466 251T425 48T263 -9T101 48T60 251T106 453ZM207 23T263 23T351 34T401 77T424 148T429 259Q429 385 394 431T263 477T132 431T97 259Q97 188 102 149T124 78T174
35ZM146 638V700H181V638H146ZM336 638V700H371V638H336Z" />
<glyph unicode="&#xf7;" glyph-name="divide" horiz-adv-x="560" d="M58 234V268H502V234H58ZM261 383V463H299V383H261ZM261 39V119H299V39H261Z" />
<glyph unicode="&#xf8;" glyph-name="oslash" horiz-adv-x="526" d="M263 509Q316 509 349 498L393 605L423 594L378 487Q424 462 445 408T466 259Q466 105 425 48T263 -9Q214 -9 179 0L133 -114L103 -104L149 9Q98 32 79 89T60 272T106 453T263 509ZM263 477Q167
477 132 431T97 272T110 110T163 40L337 468Q307 477 263 477ZM191 30Q218 23 268 23T351 34T401 77T424 148T429 265T415 389T366 456L191 30Z" />
<glyph unicode="&#xf9;" glyph-name="ugrave" horiz-adv-x="516" d="M402 500H437V0H402V40Q393 35 378 27T320 5T238 -9Q138 -9 106 41T74 240V500H109V242Q109 110 133 67T238 23Q278 23 319 35T381 60L402 73V500ZM141 732L333 636L318 609L125 701L141 732Z" />
<glyph unicode="&#xfa;" glyph-name="uacute" horiz-adv-x="516" d="M437 500V0H402V40L380 28Q358 15 317 3T238 -9Q138 -9 106 41T74 240V500H109V242Q109 110 133 67T238 23Q278 23 328 39T402 73V500H437ZM172 636L364 732L380 701L187 609L172 636Z" />
<glyph unicode="&#xfb;" glyph-name="ucircumflex" horiz-adv-x="516" d="M437 500V0H402V40L380 28Q358 15 317 3T238 -9Q138 -9 106 41T74 240V500H109V242Q109 110 133 67T238 23Q278 23 328 39T402 73V500H437ZM121 600L242 732H270L392 600H349L257 700L164
600H121Z" />
<glyph unicode="&#xfc;" glyph-name="udieresis" horiz-adv-x="516" d="M437 500V0H402V40L380 28Q358 15 317 3T238 -9Q138 -9 106 41T74 240V500H109V242Q109 110 133 67T238 23Q278 23 328 39T402 73V500H437ZM149 638V700H184V638H149ZM339 638V700H374V638H339Z" />
<glyph unicode="&#xfd;" glyph-name="yacute" horiz-adv-x="471" d="M31 500H68L215 32H256L404 500H441L212 -230H175L247 0H186L31 500ZM175 636L367 732L383 701L190 609L175 636Z" />
<glyph unicode="&#xfe;" glyph-name="thorn" horiz-adv-x="515" d="M114 29Q192 23 240 23T327 36T386 82T412 154T419 259Q419 378 393 427T286 477Q246 477 203 467T137 447L114 437V29ZM114 469Q197 509 291 509T420 453T456 255T409 53T228 -9L114 -3V-230H79V730H114V469Z"
/>
<glyph unicode="&#xff;" glyph-name="ydieresis" horiz-adv-x="471" d="M31 500H68L215 32H256L404 500H441L212 -230H175L247 0H186L31 500ZM121 638V700H156V638H121ZM311 638V700H346V638H311Z" />
<glyph unicode="&#x2013;" glyph-name="endash" horiz-adv-x="643" d="M72 286H572V252H72V286Z" />
<glyph unicode="&#x2014;" glyph-name="emdash" horiz-adv-x="1143" d="M72 286H1072V252H72V286Z" />
<glyph unicode="&#x2018;" glyph-name="quoteleft" horiz-adv-x="193" d="M140 727L100 527H62L111 727H140Z" />
<glyph unicode="&#x2019;" glyph-name="quoteright" horiz-adv-x="191" d="M63 527L103 727H141L92 527H63Z" />
<glyph unicode="&#x201a;" glyph-name="quotesinglbase" horiz-adv-x="192" d="M121 115L81 -85H43L92 115H121Z" />
<glyph unicode="&#x201c;" glyph-name="quotedblleft" horiz-adv-x="326" d="M273 727L233 527H195L244 727H273ZM140 727L100 527H62L111 727H140Z" />
<glyph unicode="&#x201d;" glyph-name="quotedblright" horiz-adv-x="335" d="M63 527L103 727H141L92 527H63ZM207 527L247 727H285L236 527H207Z" />
<glyph unicode="&#x201e;" glyph-name="quotedblbase" horiz-adv-x="317" d="M119 109L79 -91H41L90 109H119ZM247 109L207 -91H169L218 109H247Z" />
<glyph unicode="&#x2022;" glyph-name="bullet" horiz-adv-x="488" d="M119 110V400H369V110H119Z" />
<glyph unicode="&#x2039;" glyph-name="guilsinglleft" horiz-adv-x="290" d="M215 360L80 254L215 137V96L48 234V270L215 399V360Z" />
<glyph unicode="&#x203a;" glyph-name="guilsinglright" horiz-adv-x="290" d="M210 254L75 360V399L242 270V234L75 96V137L210 254Z" />
</font>
</defs>
</svg>
