<?xml version="1.0" standalone="no"?>
<!DOCTYPE svg PUBLIC "-//W3C//DTD SVG 1.1//EN" "http://www.w3.org/Graphics/SVG/1.1/DTD/svg11.dtd">
<svg xmlns="http://www.w3.org/2000/svg">
<defs >
<font id="TitilliumWeb" horiz-adv-x="500" ><font-face
    font-family="Titillium Web SemiBold"
    units-per-em="1000"
    panose-1="0 0 7 0 0 0 0 0 0 0"
    ascent="1133"
    descent="-388"
    alphabetic="0" />
<glyph unicode=" " glyph-name="space" horiz-adv-x="220" />
<glyph unicode="!" glyph-name="exclam" horiz-adv-x="266" d="M74 0V140H191V0H74ZM85 241L75 685H191L181 241H85Z" />
<glyph unicode="&quot;" glyph-name="quotedbl" horiz-adv-x="395" d="M329 453H234L230 685H335L329 453ZM160 453H64L60 685H166L160 453Z" />
<glyph unicode="#" glyph-name="numbersign" horiz-adv-x="560" d="M540 160H438V0H343V160H217V0H122V160H20V251H122V403H20V494H122V663H217V494H343V663H438V494H540V403H438V251H540V160ZM343 251V403H217V251H343Z" />
<glyph unicode="$" glyph-name="dollar" horiz-adv-x="560" d="M503 196Q503 92 444 41T282 -11H274L260 -127Q196 -124 196 -120L210 -7Q146 -1 86 11L66 15L77 101Q156 90 222 86L249 293Q145 321 102 362T59 491T117 625T279 671H297L314 805H378L360 666L488
648L479 562Q408 570 349 574L324 381Q425 352 464 314T503 196ZM166 491Q166 454 186 435T262 398L285 577Q166 575 166 491ZM395 190Q395 224 377 243T311 276L286 84Q395 88 395 190Z" />
<glyph unicode="%" glyph-name="percent" horiz-adv-x="560" d="M138 -6L360 691L422 670L200 -26L138 -6ZM20 529Q20 671 135 671T251 529Q251 457 221 421T136 385T50 421T20 529ZM102 569T102 529T109 471T136 453T162 471T170 529T163 586T136 604T110 587ZM309
133Q309 275 424 275T540 133Q540 61 510 25T425 -11T339 25T309 133ZM405 207T398 190T390 133T397 75T424 56T450 74T458 132T451 190T425 207Z" />
<glyph unicode="&amp;" glyph-name="ampersand" horiz-adv-x="696" d="M123 627T174 667T317 707T457 667T506 555T474 442T361 354L483 233Q490 252 497 298T506 376L611 374Q597 252 562 169L681 60L619 -11L506 87Q473 41 418 15T297 -11Q156 -11 97 42T38
199Q38 282 73 327T186 402Q147 447 135 478T123 558Q123 627 174 667ZM285 86Q333 86 373 102T432 148L243 337Q193 318 171 288T148 208Q148 86 285 86ZM233 536Q233 487 278 439L300 416Q353 446 374 472T396 539Q396 615 315 615T233 536Z" />
<glyph unicode="&apos;" glyph-name="quotesingle" horiz-adv-x="225" d="M64 453L61 685H167L160 453H64Z" />
<glyph unicode="(" glyph-name="parenleft" horiz-adv-x="289" d="M163 388T163 301T186 108T234 -62L258 -125H155Q141 -102 119 -49T82 52T55 168T43 320T71 515T127 688L155 750H258Q224 664 194 526Z" />
<glyph unicode=")" glyph-name="parenright" horiz-adv-x="289" d="M246 365T246 301T235 170T206 52Q172 -54 146 -104L134 -125H31Q42 -99 57 -56T99 101T126 301T103 500T55 682L31 750H134Q148 724 170 666T207 558T234 436Z" />
<glyph unicode="*" glyph-name="asterisk" horiz-adv-x="423" d="M382 504H255L294 382L232 363L191 486L86 407L46 458L153 537L49 611L88 665L191 590L231 713L295 692L256 568H382V504Z" />
<glyph unicode="+" glyph-name="plus" horiz-adv-x="560" d="M52 202V300H230V479H328V300H508V202H328V21H230V202H52Z" />
<glyph unicode="," glyph-name="comma" horiz-adv-x="246" d="M26 -123L74 124H194L114 -123H26Z" />
<glyph unicode="-" glyph-name="hyphen" horiz-adv-x="421" d="M61 220V319H360V220H61Z" />
<glyph unicode="." glyph-name="period" horiz-adv-x="239" d="M61 0V144H178V0H61Z" />
<glyph unicode="/" glyph-name="slash" horiz-adv-x="443" d="M32 9L317 714L413 679L127 -25L32 9Z" />
<glyph unicode="0" glyph-name="zero" horiz-adv-x="560" d="M155 671T280 671T467 591T529 327T467 66T280 -11T93 65T30 325T92 590ZM352 574T280 574T177 520T145 328T177 139T280 86T382 138T414 328T383 519Z" />
<glyph unicode="1" glyph-name="one" horiz-adv-x="560" d="M405 660V0H294V534L139 434L88 517L303 660H405Z" />
<glyph unicode="2" glyph-name="two" horiz-adv-x="560" d="M492 0H67V95L230 263Q304 339 334 382T364 476T335 550T240 572Q178 572 103 558L78 554L71 642Q168 671 272 671Q479 671 479 487Q479 415 448 362T335 234L194 97H492V0Z" />
<glyph unicode="3" glyph-name="three" horiz-adv-x="560" d="M66 639Q159 671 270 671T431 629T482 494Q482 454 467 422T435 376T395 345Q448 320 471 291T495 195Q495 90 443 40T275 -11Q230 -11 176 -4T90 12L59 20L66 106Q176 86 260 86Q380 87 380 192Q380
240 349 265T267 291H134V384H267Q304 384 335 414T367 488T340 553T264 574Q185 574 101 560L75 555L66 639Z" />
<glyph unicode="4" glyph-name="four" horiz-adv-x="560" d="M337 0V118H40V203L214 660H337L153 215H337V409H449V215H521V118H449V0H337Z" />
<glyph unicode="5" glyph-name="five" horiz-adv-x="560" d="M484 660V562H178L161 388Q229 419 295 419Q507 419 507 221Q507 109 449 49T283 -11Q238 -11 181 -3T90 14L56 23L68 107Q186 87 270 87Q328 87 360 119T392 210T364 295T291 321Q210 321 159 301L141
294L71 309L89 660H484Z" />
<glyph unicode="6" glyph-name="six" horiz-adv-x="560" d="M490 560Q393 574 314 574T196 525T156 388L179 396Q251 419 300 419Q524 419 524 209Q524 101 462 45T281 -11T102 77T41 330Q41 671 309 671Q384 671 471 653L500 647L490 560ZM174 299L155 292Q157
86 287 86Q346 86 377 118T409 207T378 292T292 321T174 299Z" />
<glyph unicode="7" glyph-name="seven" horiz-adv-x="560" d="M73 560V660H489V528L246 -11L142 19L377 530V560H73Z" />
<glyph unicode="8" glyph-name="eight" horiz-adv-x="560" d="M168 671T278 671T453 626T519 495Q519 435 501 405T431 342Q482 309 505 275T529 179Q529 79 460 34T278 -11Q30 -11 30 168Q30 235 53 271T126 342Q79 373 60 406T41 496Q41 580 104 625ZM149 192Q149
89 279 89T410 194Q410 263 326 289H230Q149 263 149 192ZM400 479Q400 571 280 571T160 479Q160 419 230 384H326Q400 419 400 479Z" />
<glyph unicode="9" glyph-name="nine" horiz-adv-x="560" d="M248 86Q400 86 402 278L378 270Q302 244 256 244Q148 244 91 295T34 450T97 612T270 671Q395 671 456 582T517 319T449 67T248 -11Q173 -11 86 7L57 13L67 100Q164 86 248 86ZM265 342Q322 342 382
364L403 371Q401 574 270 574Q213 574 181 541T149 451Q149 342 265 342Z" />
<glyph unicode=":" glyph-name="colon" horiz-adv-x="239" d="M61 303V447H178V303H61ZM61 0V144H178V0H61Z" />
<glyph unicode=";" glyph-name="semicolon" horiz-adv-x="266" d="M84 124H204L124 -123H36L84 124ZM77 303V447H194V303H77Z" />
<glyph unicode="&lt;" glyph-name="less" horiz-adv-x="560" d="M474 377L180 253L474 123V11L64 206V296L474 488V377Z" />
<glyph unicode="=" glyph-name="equal" horiz-adv-x="560" d="M61 301V399H499V301H61ZM61 103V201H499V103H61Z" />
<glyph unicode="&gt;" glyph-name="greater" horiz-adv-x="560" d="M380 253L86 377V488L496 296V206L86 11V123L380 253Z" />
<glyph unicode="?" glyph-name="question" horiz-adv-x="441" d="M406 534Q406 467 390 432T322 357T255 294T238 243V210H150Q126 241 126 288Q126 313 145 338T213 403T278 466T294 526Q294 599 188 599Q128 599 62 585L39 580L33 663Q126 696 202 696Q307 696
356 658T406 534ZM133 0V140H249V0H133Z" />
<glyph unicode="@" glyph-name="at" horiz-adv-x="975" d="M939 305V295Q939 130 893 64T754 -3Q709 -3 678 11T637 40L628 55Q540 -2 461 -2T334 53T286 243T330 440T482 502Q522 502 568 484L584 477V491H692V307Q692 155 702 122Q705 110 713 101T729 90T759
88T796 102Q830 133 830 295V306Q830 477 753 554T502 631T241 538T152 254T233 -24T503 -111L646 -102L651 -197Q559 -206 503 -206Q388 -206 306 -184T164 -108Q44 -3 44 261Q44 496 164 611T504 726Q939 726 939 305ZM477 93Q519 93 591 127Q584 167 584 262V392Q534
407 504 407Q440 407 418 371T396 248Q396 93 477 93Z" />
<glyph unicode="A" glyph-name="A" horiz-adv-x="599" d="M20 0L189 685H410L580 0H468L431 147H168L131 0H20ZM275 592L190 245H409L325 592H275Z" />
<glyph unicode="B" glyph-name="B" horiz-adv-x="612" d="M79 685H339Q444 685 496 643T548 507Q548 446 529 411T467 353Q565 315 565 194Q565 0 347 0H79V685ZM339 299H190V96H341Q396 96 423 119T451 198T419 276T339 299ZM333 589H190V393H337Q435 393 435
494Q435 589 333 589Z" />
<glyph unicode="C" glyph-name="C" horiz-adv-x="544" d="M309 -11Q159 -11 106 72T52 345T106 615T309 696Q398 696 505 671L501 581Q411 597 321 597T199 544T167 343T198 142T319 88T501 103L504 11Q401 -11 309 -11Z" />
<glyph unicode="D" glyph-name="D" horiz-adv-x="641" d="M316 0H79V685H316Q474 685 532 605T590 354Q590 267 579 207T538 97Q481 0 316 0ZM475 354Q475 478 444 533T316 588H190V98H316Q415 98 448 171Q464 208 469 250T475 354Z" />
<glyph unicode="E" glyph-name="E" horiz-adv-x="553" d="M79 0V685H511V588H190V394H451V298H190V98H511V0H79Z" />
<glyph unicode="F" glyph-name="F" horiz-adv-x="529" d="M79 0V685H504V588H190V357H451V260H190V0H79Z" />
<glyph unicode="G" glyph-name="G" horiz-adv-x="613" d="M358 262V360H553V12Q526 5 444 -3T324 -11Q168 -11 109 75T50 344T110 612T320 696Q408 696 518 676L553 669L549 581Q428 597 332 597T201 543T165 343T198 142T334 86Q407 86 443 95V262H358Z" />
<glyph unicode="H" glyph-name="H" horiz-adv-x="676" d="M486 0V296H190V0H79V685H190V393H486V685H598V0H486Z" />
<glyph unicode="I" glyph-name="I" horiz-adv-x="269" d="M79 0V685H190V0H79Z" />
<glyph unicode="J" glyph-name="J" horiz-adv-x="296" d="M19 -71V27Q72 27 91 43T111 114V685H221L222 106Q222 -1 177 -36T19 -71Z" />
<glyph unicode="K" glyph-name="K" horiz-adv-x="583" d="M190 0H79V685H190V376L292 384L432 685H559L390 341L566 0H437L292 286L190 279V0Z" />
<glyph unicode="L" glyph-name="L" horiz-adv-x="475" d="M463 0H79V685H190V99H463V0Z" />
<glyph unicode="M" glyph-name="M" horiz-adv-x="850" d="M79 0V685H272L425 150L578 685H772V0H660V562H645L483 28H367L205 562H190V0H79Z" />
<glyph unicode="N" glyph-name="N" horiz-adv-x="686" d="M79 0V685H273L481 98H496V685H607V0H417L204 588H190V0H79Z" />
<glyph unicode="O" glyph-name="O" horiz-adv-x="656" d="M232 86T328 86T457 144T491 338T457 537T328 599T199 537T164 340T198 145ZM483 -11T328 -11T111 73T49 339T111 608T328 696T544 609T606 339T545 73Z" />
<glyph unicode="P" glyph-name="P" horiz-adv-x="591" d="M330 213H190V0H79V685H330Q563 685 563 455Q563 337 505 275T330 213ZM190 309H329Q449 309 449 455Q449 525 420 557T329 589H190V309Z" />
<glyph unicode="Q" glyph-name="Q" horiz-adv-x="656" d="M328 -11Q172 -11 111 73T49 338T111 608T328 696T544 609T606 339Q606 219 581 145T497 32L581 -103L478 -151L389 -5Q370 -11 328 -11ZM232 86T328 86T457 143T491 338T457 537T328 599T199 537T164
339T198 145Z" />
<glyph unicode="R" glyph-name="R" horiz-adv-x="618" d="M190 244V0H79V685H339Q571 685 571 467Q571 321 459 269L572 0H450L351 244H190ZM457 466Q457 589 339 589H190V340H341Q401 340 429 374T457 466Z" />
<glyph unicode="S" glyph-name="S" horiz-adv-x="543" d="M280 599Q153 599 153 510Q153 464 183 445T315 397T460 329T502 204Q502 96 441 43T273 -11Q188 -11 85 9L49 16L60 105Q195 87 266 87Q390 87 390 197Q390 240 362 260T236 305T90 373T42 509T102 649T270
697Q347 697 452 679L487 673L478 583Q338 599 280 599Z" />
<glyph unicode="T" glyph-name="T" horiz-adv-x="526" d="M13 586V685H513V586H320V0H208V586H13Z" />
<glyph unicode="U" glyph-name="U" horiz-adv-x="650" d="M185 219Q185 86 325 86T465 219V685H577V221Q577 100 514 45T325 -11T136 44T73 221V685H185V219Z" />
<glyph unicode="V" glyph-name="V" horiz-adv-x="594" d="M458 685H574L406 0H188L20 685H136L272 98H322L458 685Z" />
<glyph unicode="W" glyph-name="W" horiz-adv-x="911" d="M24 685H141L239 96H260L390 683H520L650 96H672L770 685H887L752 0H573L455 549L338 0H158L24 685Z" />
<glyph unicode="X" glyph-name="X" horiz-adv-x="564" d="M138 685L285 415L434 685H551L348 337L551 0H427L280 258L130 0H13L217 331L13 685H138Z" />
<glyph unicode="Y" glyph-name="Y" horiz-adv-x="549" d="M331 0H219V282L4 685H129L274 391L420 685H544L331 282V0Z" />
<glyph unicode="Z" glyph-name="Z" horiz-adv-x="534" d="M42 588V685H492V578L174 116V97H492V0H42V106L359 568V588H42Z" />
<glyph unicode="[" glyph-name="bracketleft" horiz-adv-x="344" d="M306 749V652H183V-26H306V-123H73V749H306Z" />
<glyph unicode="\" glyph-name="backslash" horiz-adv-x="471" d="M440 13L345 -27L31 670L125 712L440 13Z" />
<glyph unicode="]" glyph-name="bracketright" horiz-adv-x="344" d="M38 652V749H271V-123H38V-26H161V652H38Z" />
<glyph unicode="^" glyph-name="asciicircum" horiz-adv-x="560" d="M400 316L276 554L151 316H37L227 660H321L514 316H400Z" />
<glyph unicode="_" glyph-name="underscore" horiz-adv-x="625" d="M99 -81H527V-174H99V-81Z" />
<glyph unicode="`" glyph-name="grave" horiz-adv-x="254" d="M24 748L260 647L234 576L-10 654L24 748Z" />
<glyph unicode="a" glyph-name="a" horiz-adv-x="507" d="M436 346V118Q437 96 447 86T480 72L477 -11Q391 -11 344 26Q264 -11 183 -11Q34 -11 34 148Q34 224 74 258T199 299L328 310V346Q328 386 311 402T259 418Q195 418 99 410L67 408L63 485Q172 511 263
511T395 472T436 346ZM212 222Q143 216 143 147T204 78Q254 78 310 94L328 100V233L212 222Z" />
<glyph unicode="b" glyph-name="b" horiz-adv-x="536" d="M299 511Q402 511 447 454T493 250T439 47T249 -11Q202 -11 100 -2L66 1V708H174V481Q243 511 299 511ZM249 86Q329 86 355 123T382 251T360 377T286 414Q238 414 190 399L174 394V90Q229 86 249 86Z" />
<glyph unicode="c" glyph-name="c" horiz-adv-x="442" d="M253 511Q306 511 378 497L403 492L399 406Q320 414 282 414Q206 414 180 380T154 252T179 122T283 86L400 94L403 7Q302 -11 251 -11Q137 -11 91 50T44 252T93 451T253 511Z" />
<glyph unicode="d" glyph-name="d" horiz-adv-x="540" d="M474 708V0H366V26Q293 -11 232 -11Q134 -11 89 48T43 246T93 448T251 511Q287 511 365 498V708H474ZM348 104L365 111V407Q305 417 254 417Q153 417 153 249Q153 157 176 122T251 86T348 104Z" />
<glyph unicode="e" glyph-name="e" horiz-adv-x="508" d="M422 90L450 93L452 12Q338 -11 250 -11Q139 -11 91 50T42 245Q42 511 259 511Q469 511 469 282L462 204H152Q153 142 179 113T276 84T422 90ZM362 288Q362 362 339 391T259 421T178 390T151 288H362Z" />
<glyph unicode="f" glyph-name="f" horiz-adv-x="346" d="M197 407V0H89V407H31V500H89V532Q89 639 120 679T230 719L338 709L337 620Q288 622 256 622T210 603T197 531V500H329V407H197Z" />
<glyph unicode="g" glyph-name="g" horiz-adv-x="525" d="M503 -68Q503 -232 266 -232Q152 -232 97 -201T42 -88Q42 -51 60 -25T118 33Q85 55 85 106Q85 126 112 171L121 186Q49 229 49 336Q49 426 103 468T249 510Q293 510 336 500L351 497L506 501V413L423 418Q450
383 450 336Q450 238 401 201T246 163Q220 163 202 167Q188 133 188 115T206 89T296 81Q415 80 459 49T503 -68ZM149 -78Q149 -113 177 -128T273 -143Q394 -143 394 -74Q394 -35 373 -25T287 -13L189 -7Q167 -25 158 -40T149 -78ZM157 290T179 269T250 247T320
268T342 336T320 403T249 425Q157 425 157 336Q157 290 179 269Z" />
<glyph unicode="h" glyph-name="h" horiz-adv-x="546" d="M175 0H66V708H175V474Q249 511 312 511Q412 511 448 455T485 268V0H376V265Q376 346 359 380T287 414Q239 414 191 398L175 392V0Z" />
<glyph unicode="i" glyph-name="i" horiz-adv-x="241" d="M66 0V500H175V0H66ZM66 585V700H175V585H66Z" />
<glyph unicode="j" glyph-name="j" horiz-adv-x="242" d="M67 19V500H175V18Q175 -80 141 -127T2 -227L-41 -146Q29 -102 48 -75T67 19ZM67 585V700H175V585H67Z" />
<glyph unicode="k" glyph-name="k" horiz-adv-x="499" d="M175 0H66V708H175V299L237 305L355 500H477L333 266L485 0H362L240 211L175 204V0Z" />
<glyph unicode="l" glyph-name="l" horiz-adv-x="253" d="M72 0V708H181V0H72Z" />
<glyph unicode="m" glyph-name="m" horiz-adv-x="838" d="M175 0H66V500H174V469Q245 511 304 511Q391 511 431 462Q522 511 612 511T739 456T776 268V0H668V265Q668 346 652 380T583 414Q538 414 486 394L469 387Q477 367 477 259V0H369V257Q369 346 353 380T283
414Q233 414 190 394L175 388V0Z" />
<glyph unicode="n" glyph-name="n" horiz-adv-x="546" d="M175 0H66V500H174V469Q247 511 312 511Q412 511 448 455T485 268V0H377V265Q377 346 360 380T288 414Q237 414 190 394L175 388V0Z" />
<glyph unicode="o" glyph-name="o" horiz-adv-x="530" d="M145 511T265 511T436 446T488 251T438 55T265 -11T92 55T42 251T93 446ZM198 81T265 81T355 121T378 252T354 381T265 419T177 381T152 252T175 121Z" />
<glyph unicode="p" glyph-name="p" horiz-adv-x="537" d="M66 -215V500H174V469Q243 511 303 511Q402 511 448 451T494 248T442 47T270 -11Q229 -11 175 -2V-215H66ZM284 414Q237 414 190 393L175 386V91Q215 83 263 83Q331 83 357 122T383 255Q383 414 284 414Z" />
<glyph unicode="q" glyph-name="q" horiz-adv-x="535" d="M239 -11Q136 -11 90 47T43 250T97 453T286 511Q335 511 436 502L469 499V-215H361V19Q294 -11 239 -11ZM286 417Q207 417 180 378T152 249T176 123T252 86Q299 86 346 101L361 106V413Q313 417 286 417Z" />
<glyph unicode="r" glyph-name="r" horiz-adv-x="361" d="M66 0V500H174V440Q259 495 344 511V402Q258 385 197 358L175 349V0H66Z" />
<glyph unicode="s" glyph-name="s" horiz-adv-x="469" d="M413 397Q295 413 242 413T169 401T148 361T170 323T276 298T395 252T430 142T380 26T232 -11Q171 -11 78 6L47 11L51 102Q171 86 224 86T299 99T322 142T301 183T198 208T78 251T40 357T92 472T227 510Q291
510 384 494L415 488L413 397Z" />
<glyph unicode="t" glyph-name="t" horiz-adv-x="358" d="M335 407H197V187Q197 126 206 106T252 86L334 89L339 2Q272 -11 237 -11Q152 -11 121 28T89 175V407H25V500H89V645H197V500H335V407Z" />
<glyph unicode="u" glyph-name="u" horiz-adv-x="543" d="M369 500H477V0H369V31Q296 -11 234 -11Q131 -11 96 44T61 239V500H170V238Q170 148 185 117T255 86Q309 86 354 106L369 112V500Z" />
<glyph unicode="v" glyph-name="v" horiz-adv-x="491" d="M19 500H133L229 93H261L361 500H472L342 0H148L19 500Z" />
<glyph unicode="w" glyph-name="w" horiz-adv-x="768" d="M27 500H134L213 93H233L328 490H440L535 93H555L633 500H741L635 0H462L384 343L306 0H133L27 500Z" />
<glyph unicode="x" glyph-name="x" horiz-adv-x="464" d="M18 500H134L232 327L331 500H447L298 254L447 0H331L232 171L134 0H18L163 251L18 500Z" />
<glyph unicode="y" glyph-name="y" horiz-adv-x="492" d="M20 500H127L233 93H260L366 500H474L284 -215H177L237 0H151L20 500Z" />
<glyph unicode="z" glyph-name="z" horiz-adv-x="454" d="M41 403V500H412V403L172 97H412V0H41V97L282 403H41Z" />
<glyph unicode="{" glyph-name="braceleft" horiz-adv-x="357" d="M228 575L235 450Q235 387 214 359T126 313Q192 296 213 266T235 171L228 54Q228 11 247 -12T318 -39V-131Q211 -127 167 -88T122 42L129 163Q129 240 19 270V355Q76 368 102 392T129 456L122
583Q122 677 166 715T319 758L320 666Q267 662 248 640T228 575Z" />
<glyph unicode="|" glyph-name="bar" horiz-adv-x="252" d="M72 -215V708H180V-215H72Z" />
<glyph unicode="}" glyph-name="braceright" horiz-adv-x="357" d="M129 54L122 171Q122 235 143 265T231 313Q164 331 143 359T122 450L129 575Q129 618 110 640T37 666L38 758Q146 754 190 716T235 583L228 456Q228 417 254 393T338 355V270Q228 240 228 163L235
42Q235 -48 191 -87T39 -131V-39Q91 -36 110 -13T129 54Z" />
<glyph unicode="~" glyph-name="asciitilde" horiz-adv-x="560" d="M409 181T382 181T277 206T180 232T135 222T91 200L74 190L64 278Q126 330 184 330Q212 330 287 305T382 279Q417 279 470 310L487 320L496 233Q478 215 444 198Z" />
<glyph unicode="&#xa0;" glyph-name="uni00A0" horiz-adv-x="220" />
<glyph unicode="&#xa1;" glyph-name="exclamdown" horiz-adv-x="248" d="M183 500V360H66V500H183ZM172 259L182 -185H66L76 259H172Z" />
<glyph unicode="&#xa2;" glyph-name="cent" horiz-adv-x="560" d="M274 -78V32Q183 37 138 88T93 249Q93 455 273 468V576H364V464L452 452L449 369Q370 374 327 374Q259 374 232 345T204 249T231 154T330 126L450 131L453 48Q405 38 364 36V-78H274Z" />
<glyph unicode="&#xa3;" glyph-name="sterling" horiz-adv-x="560" d="M456 564Q383 573 338 573T278 553T263 478V426H423V333H263V93H400L472 109L489 18L408 0H77V93H156V333H90V426H156V483Q156 592 193 631T314 670Q373 670 438 655L459 650L456 564Z" />
<glyph unicode="&#xa4;" glyph-name="currency" horiz-adv-x="560" d="M371 86Q328 62 280 62T188 86L117 14L42 89L114 160Q90 200 90 250T114 343L42 415L117 490L188 418Q231 442 279 442T371 418L443 490L518 415L446 343Q470 300 470 252T446 160L518 89L443
14L371 86ZM240 154T280 154T349 183T378 252T349 321T280 350T211 321T182 252T211 183Z" />
<glyph unicode="&#xa5;" glyph-name="yen" horiz-adv-x="560" d="M58 301V393H170L13 660H137L281 424L424 660H548L392 393H502V301H341L337 283V238H502V146H337V0H226V146H58V238H226V283L223 301H58Z" />
<glyph unicode="&#xa6;" glyph-name="brokenbar" horiz-adv-x="256" d="M74 708H182V335H74V708ZM74 164H182V-215H74V164Z" />
<glyph unicode="&#xa7;" glyph-name="section" horiz-adv-x="509" d="M433 534Q322 550 268 550T190 533T166 478T195 425T309 392T427 344T461 245T414 109Q451 77 451 -6Q451 -173 246 -173Q192 -173 94 -157L64 -152L75 -64Q183 -79 238 -79Q347 -79 347 -4Q347
31 322 44T252 67T205 78Q116 98 80 129T43 231Q43 267 63 306T105 362Q61 394 61 471Q61 644 267 644Q333 644 410 628L438 623L433 534ZM177 325Q152 288 152 252T169 201T241 174T330 148Q336 156 343 181T351 235T331 277T246 308T177 325Z" />
<glyph unicode="&#xa8;" glyph-name="dieresis" horiz-adv-x="254" d="M-22 607V721H82V607H-22ZM187 607V721H291V607H187Z" />
<glyph unicode="&#xa9;" glyph-name="copyright" horiz-adv-x="644" d="M205 155T129 235T52 435T128 633T323 713T517 632T592 433T517 235T324 155ZM106 528T106 434T167 274T321 208T476 273T538 433T476 594T322 661T168 595ZM331 595Q369 595 410 582L404
510Q368 517 339 517T300 500T290 437T300 371T336 351L404 357L410 288Q378 272 320 272T233 308T205 434T234 559T331 595Z" />
<glyph unicode="&#xaa;" glyph-name="ordfeminine" horiz-adv-x="403" d="M330 551V412Q338 402 353 400L351 332Q296 332 276 339T243 362Q195 333 147 333T73 360T47 435Q47 523 161 529L237 533V556Q237 582 191 582L67 575L64 638Q134 659 199 659T297 636T330
551ZM177 470Q141 467 141 437T174 406Q199 406 228 418L237 422V474L177 470Z" />
<glyph unicode="&#xab;" glyph-name="guillemotleft" horiz-adv-x="574" d="M251 330L135 247L251 153V42L42 204V285L251 440V330ZM514 330L398 247L514 153V42L305 204V285L514 440V330Z" />
<glyph unicode="&#xac;" glyph-name="logicalnot" horiz-adv-x="560" d="M61 351H493V110H395V254H61V351Z" />
<glyph unicode="&#xae;" glyph-name="registered" horiz-adv-x="644" d="M206 155T129 235T52 435T128 633T323 713T517 632T592 433T517 235T324 155ZM106 528T106 434T168 274T323 208T476 273T538 433T476 594T322 661T168 595ZM286 378V279H206V588H331Q445
588 445 488Q445 450 436 429T401 391L449 279H365L328 378H286ZM285 527V438H326Q368 438 368 482T321 527H285Z" />
<glyph unicode="&#xaf;" glyph-name="overscore" horiz-adv-x="254" d="M-9 609V691H273V609H-9Z" />
<glyph unicode="&#xb0;" glyph-name="degree" horiz-adv-x="560" d="M134 485T134 550T174 655T280 696T385 656T426 550T386 445T280 405T175 445ZM198 587T198 550T220 490T280 467T340 490T364 550T341 610T280 634T221 611Z" />
<glyph unicode="&#xb1;" glyph-name="plusminus" horiz-adv-x="560" d="M52 280V378H230V493H328V378H508V280H328V168H230V280H52ZM52 125H508V27H52V125Z" />
<glyph unicode="&#xb2;" glyph-name="twosuperior" horiz-adv-x="280" d="M246 478H25V553L104 624Q152 665 152 692Q152 717 110 717L31 710L27 790Q94 800 145 800T220 778T244 713T231 648T186 599L137 557H246V478Z" />
<glyph unicode="&#xb3;" glyph-name="threesuperior" horiz-adv-x="280" d="M134 800Q248 800 248 714Q248 661 214 642Q255 626 255 567Q255 468 142 468L24 476L30 553Q89 546 126 546T164 574Q164 600 129 600H63V672H128Q140 672 148 679T156 698Q156 722
121 722L34 716L28 791Q93 800 134 800Z" />
<glyph unicode="&#xb4;" glyph-name="acute" horiz-adv-x="268" d="M14 647L250 748L284 654L40 576L14 647Z" />
<glyph unicode="&#xb5;" glyph-name="mu" horiz-adv-x="560" d="M380 500H488V0H380V31Q307 -11 245 -11Q206 -11 181 -4V-215H72V500H181V214Q182 140 198 113T266 86Q320 86 365 106L380 112V500Z" />
<glyph unicode="&#xb6;" glyph-name="paragraph" horiz-adv-x="596" d="M403 0V592H318V0H224V303H217Q135 303 83 356T31 493T83 631T219 685H549V592H497V0H403Z" />
<glyph unicode="&#xb7;" glyph-name="middot" horiz-adv-x="239" d="M61 194V338H178V194H61Z" />
<glyph unicode="&#xb8;" glyph-name="cedilla" horiz-adv-x="264" d="M173 -43T201 -60T229 -128T202 -205T125 -231Q87 -231 48 -224L35 -221L39 -156Q73 -158 94 -158Q135 -158 135 -127Q135 -112 126 -106T94 -100H63V1H110V-42Q173 -43 201 -60Z" />
<glyph unicode="&#xb9;" glyph-name="onesuperior" horiz-adv-x="280" d="M204 790V478H116V693L60 655L19 717L124 790H204Z" />
<glyph unicode="&#xba;" glyph-name="ordmasculine" horiz-adv-x="403" d="M46 659T201 659T357 496T202 333T46 496ZM170 419T202 419T246 437T258 497T247 556T203 574T157 556T143 497T156 438Z" />
<glyph unicode="&#xbb;" glyph-name="guillemotright" horiz-adv-x="575" d="M439 247L323 330V440L532 285V204L323 42V153L439 247ZM176 247L60 330V440L269 285V204L60 42V153L176 247Z" />
<glyph unicode="&#xbc;" glyph-name="onequarter" horiz-adv-x="542" d="M211 790V478H123V693L67 655L26 717L131 790H211ZM32 29L425 660L472 630L79 -3L32 29ZM410 -100V-59H274V14L326 212H424L363 20H410L420 109H497V20H515V-59H497V-100H410Z" />
<glyph unicode="&#xbd;" glyph-name="onehalf" horiz-adv-x="536" d="M213 790V478H125V693L69 655L28 717L133 790H213ZM31 29L424 660L471 630L78 -3L31 29ZM501 -100H280V-25L359 46Q407 87 407 114Q407 139 365 139L286 132L282 212Q349 222 400 222T475 200T499
135T486 70T441 21L392 -21H501V-100Z" />
<glyph unicode="&#xbe;" glyph-name="threequarters" horiz-adv-x="556" d="M151 800Q265 800 265 714Q265 661 231 642Q272 626 272 567Q272 468 159 468L41 476L47 553Q106 546 143 546T181 574Q181 600 146 600H80V672H145Q157 672 165 679T173 698Q173 722
138 722L51 716L45 791Q110 800 151 800ZM47 29L440 660L487 630L94 -3L47 29ZM426 -100V-59H290V14L342 212H440L379 20H426L436 109H513V20H531V-59H513V-100H426Z" />
<glyph unicode="&#xbf;" glyph-name="questiondown" horiz-adv-x="437" d="M32 -34Q32 33 48 68T116 143T183 206T200 257V290H288Q312 259 312 212Q312 187 293 162T225 97T160 34T144 -26Q144 -99 250 -99Q310 -99 376 -85L399 -80L405 -163Q312 -196 236 -196Q131
-196 82 -158T32 -34ZM305 500V360H189V500H305Z" />
<glyph unicode="&#xc0;" glyph-name="Agrave" horiz-adv-x="599" d="M20 0L189 685H410L580 0H468L431 147H168L131 0H20ZM275 592L190 245H409L325 592H275ZM186 939L422 836L394 760L151 842L186 939Z" />
<glyph unicode="&#xc1;" glyph-name="Aacute" horiz-adv-x="599" d="M20 0L189 685H410L580 0H468L431 147H168L131 0H20ZM275 592L190 245H409L325 592H275ZM172 836L408 939L443 842L200 760L172 836Z" />
<glyph unicode="&#xc2;" glyph-name="Acircumflex" horiz-adv-x="599" d="M20 0L189 685H410L580 0H468L431 147H168L131 0H20ZM275 592L190 245H409L325 592H275ZM117 776L251 919H345L479 776H363L299 843L234 776H117Z" />
<glyph unicode="&#xc3;" glyph-name="Atilde" horiz-adv-x="599" d="M20 0L189 685H410L580 0H468L431 147H168L131 0H20ZM275 592L190 245H409L325 592H275ZM400 777T376 777T289 802T213 827Q188 827 149 794L136 783L112 861Q118 868 127 878T163 906T216 923T303
898T376 873Q398 873 438 906L452 917L476 838Q461 817 431 797Z" />
<glyph unicode="&#xc4;" glyph-name="Adieresis" horiz-adv-x="599" d="M20 0L189 685H410L580 0H468L431 147H168L131 0H20ZM275 592L190 245H409L325 592H275ZM142 783V897H246V783H142ZM351 783V897H455V783H351Z" />
<glyph unicode="&#xc5;" glyph-name="Aring" horiz-adv-x="599" d="M436 731Q436 693 415 664L580 0H468L431 147H168L131 0H20L184 664Q163 693 163 731Q163 785 202 816T299 848T397 817T436 731ZM275 592L190 245H409L325 592H275ZM239 753T239 731T255 697T299
685T343 697T360 731T344 765T299 778T255 766Z" />
<glyph unicode="&#xc6;" glyph-name="AE" horiz-adv-x="873" d="M399 0V142H170L128 0H15L217 693H829V586H509V405H769V300H509V107H829V0H399ZM296 586L198 249H399L400 586H296Z" />
<glyph unicode="&#xc7;" glyph-name="Ccedilla" horiz-adv-x="544" d="M381 -43T409 -60T437 -128T410 -205T333 -231Q295 -231 256 -224L243 -221L247 -156Q281 -158 302 -158Q343 -158 343 -127Q343 -112 334 -106T302 -100H271V-9Q145 0 99 83T52 351T106 615T309
696Q398 696 505 671L501 581Q411 597 321 597T199 544T167 343T198 142T319 88T501 103L504 11Q412 -9 318 -11V-42Q381 -43 409 -60Z" />
<glyph unicode="&#xc8;" glyph-name="Egrave" horiz-adv-x="553" d="M79 0V685H511V588H190V394H451V298H190V98H511V0H79ZM187 939L423 836L395 760L152 842L187 939Z" />
<glyph unicode="&#xc9;" glyph-name="Eacute" horiz-adv-x="553" d="M79 0V685H511V588H190V394H451V298H190V98H511V0H79ZM164 836L400 939L435 842L192 760L164 836Z" />
<glyph unicode="&#xca;" glyph-name="Ecircumflex" horiz-adv-x="553" d="M79 0V685H511V588H190V394H451V298H190V98H511V0H79ZM115 776L249 919H343L477 776H361L297 843L232 776H115Z" />
<glyph unicode="&#xcb;" glyph-name="Edieresis" horiz-adv-x="553" d="M79 0V685H511V588H190V394H451V298H190V98H511V0H79ZM138 783V897H242V783H138ZM347 783V897H451V783H347Z" />
<glyph unicode="&#xcc;" glyph-name="Igrave" horiz-adv-x="269" d="M79 0V685H190V0H79ZM12 939L248 836L220 760L-23 842L12 939Z" />
<glyph unicode="&#xcd;" glyph-name="Iacute" horiz-adv-x="269" d="M79 0V685H190V0H79ZM10 836L246 939L281 842L38 760L10 836Z" />
<glyph unicode="&#xce;" glyph-name="Icircumflex" horiz-adv-x="269" d="M79 0V685H190V0H79ZM-49 776L85 919H179L313 776H197L133 843L68 776H-49Z" />
<glyph unicode="&#xcf;" glyph-name="Idieresis" horiz-adv-x="269" d="M79 0V685H190V0H79ZM-22 783V897H82V783H-22ZM187 783V897H291V783H187Z" />
<glyph unicode="&#xd0;" glyph-name="Eth" horiz-adv-x="644" d="M23 292V398H83V693H318Q480 693 539 606Q569 561 581 503T593 358T582 210T541 98Q483 0 318 0H83V292H23ZM478 359Q478 478 447 532T318 587H193V398H335V292H193V106H318Q418 106 450 179Q467
216 472 257T478 359Z" />
<glyph unicode="&#xd1;" glyph-name="Ntilde" horiz-adv-x="686" d="M79 0V685H273L481 98H496V685H607V0H417L204 588H190V0H79ZM445 777T421 777T334 802T258 827Q233 827 194 794L181 783L157 861Q163 868 172 878T208 906T261 923T348 898T421 873Q443 873
484 906L497 917L521 838Q506 817 476 797Z" />
<glyph unicode="&#xd2;" glyph-name="Ograve" horiz-adv-x="656" d="M232 86T328 86T457 144T491 338T457 537T328 599T199 537T164 340T198 145ZM483 -11T328 -11T111 73T49 339T111 608T328 696T544 609T606 339T545 73ZM214 939L450 836L422 760L179 842L214 939Z" />
<glyph unicode="&#xd3;" glyph-name="Oacute" horiz-adv-x="656" d="M232 86T328 86T457 144T491 338T457 537T328 599T199 537T164 340T198 145ZM483 -11T328 -11T111 73T49 339T111 608T328 696T544 609T606 339T545 73ZM181 836L417 939L452 842L209 760L181 836Z" />
<glyph unicode="&#xd4;" glyph-name="Ocircumflex" horiz-adv-x="656" d="M232 86T328 86T457 144T491 338T457 537T328 599T199 537T164 340T198 145ZM483 -11T328 -11T111 73T49 339T111 608T328 696T544 609T606 339T545 73ZM148 776L282 919H376L510 776H394L330
843L265 776H148Z" />
<glyph unicode="&#xd5;" glyph-name="Otilde" horiz-adv-x="656" d="M232 86T328 86T457 144T491 338T457 537T328 599T199 537T164 340T198 145ZM483 -11T328 -11T111 73T49 339T111 608T328 696T544 609T606 339T545 73ZM432 777T408 777T321 802T245 827Q220
827 181 794L168 783L144 861Q150 868 159 878T195 906T248 923T335 898T408 873Q430 873 470 906L484 917L508 838Q493 817 463 797Z" />
<glyph unicode="&#xd6;" glyph-name="Odieresis" horiz-adv-x="656" d="M232 86T328 86T457 144T491 338T457 537T328 599T199 537T164 340T198 145ZM483 -11T328 -11T111 73T49 339T111 608T328 696T544 609T606 339T545 73ZM172 783V897H276V783H172ZM381 783V897H485V783H381Z"
/>
<glyph unicode="&#xd7;" glyph-name="multiply" horiz-adv-x="560" d="M132 467L280 317L429 468L497 399L346 250L497 102L428 33L280 184L132 33L62 102L213 250L63 398L132 467Z" />
<glyph unicode="&#xd8;" glyph-name="Oslash" horiz-adv-x="656" d="M328 -11Q268 -11 221 1L164 -122L84 -83L142 41Q49 116 49 339Q49 520 111 608T328 696Q389 696 440 680L498 805L580 770L518 637Q606 557 606 339Q606 157 545 73T328 -11ZM234 599T199 537T164
341T194 152L397 588Q367 599 328 599Q234 599 199 537ZM328 86Q424 86 457 144T491 332T464 522L265 94Q294 86 328 86Z" />
<glyph unicode="&#xd9;" glyph-name="Ugrave" horiz-adv-x="650" d="M185 219Q185 86 325 86T465 219V685H577V221Q577 100 514 45T325 -11T136 44T73 221V685H185V219ZM219 939L455 836L427 760L184 842L219 939Z" />
<glyph unicode="&#xda;" glyph-name="Uacute" horiz-adv-x="650" d="M185 219Q185 86 325 86T465 219V685H577V221Q577 100 514 45T325 -11T136 44T73 221V685H185V219ZM185 836L421 939L456 842L213 760L185 836Z" />
<glyph unicode="&#xdb;" glyph-name="Ucircumflex" horiz-adv-x="650" d="M185 219Q185 86 325 86T465 219V685H577V221Q577 100 514 45T325 -11T136 44T73 221V685H185V219ZM144 776L278 919H372L506 776H390L326 843L261 776H144Z" />
<glyph unicode="&#xdc;" glyph-name="Udieresis" horiz-adv-x="650" d="M185 219Q185 86 325 86T465 219V685H577V221Q577 100 514 45T325 -11T136 44T73 221V685H185V219ZM169 783V897H273V783H169ZM378 783V897H482V783H378Z" />
<glyph unicode="&#xdd;" glyph-name="Yacute" horiz-adv-x="549" d="M331 0H219V282L4 685H129L274 391L420 685H544L331 282V0ZM148 836L384 939L419 842L176 760L148 836Z" />
<glyph unicode="&#xde;" glyph-name="Thorn" horiz-adv-x="597" d="M329 216Q390 216 420 253T451 355T421 451T329 482H190V216H329ZM330 108H190V0H79V693H190V588H330Q564 588 564 357Q564 238 505 173T330 108Z" />
<glyph unicode="&#xdf;" glyph-name="germandbls" horiz-adv-x="595" d="M175 0H66V532Q66 634 116 676T279 719T444 684T496 567Q496 514 476 488T413 442T360 414T349 391T365 365T447 321T539 259T567 170Q567 69 521 29T365 -11Q308 -11 244 3L221 8L225 96Q317
85 364 85Q455 85 455 154Q455 184 438 200T356 246Q289 275 263 304T237 379T255 450T314 492T370 524T384 566T362 608T281 623T198 602T175 527V0Z" />
<glyph unicode="&#xe0;" glyph-name="agrave" horiz-adv-x="507" d="M436 346V118Q437 96 447 86T480 72L477 -11Q391 -11 344 26Q264 -11 183 -11Q34 -11 34 148Q34 224 74 258T199 299L328 310V346Q328 386 311 402T259 418Q195 418 99 410L67 408L63 485Q172
511 263 511T395 472T436 346ZM212 222Q143 216 143 147T204 78Q254 78 310 94L328 100V233L212 222ZM145 748L381 647L355 576L111 654L145 748Z" />
<glyph unicode="&#xe1;" glyph-name="aacute" horiz-adv-x="507" d="M436 346V118Q437 96 447 86T480 72L477 -11Q391 -11 344 26Q264 -11 183 -11Q34 -11 34 148Q34 224 74 258T199 299L328 310V346Q328 386 311 402T259 418Q195 418 99 410L67 408L63 485Q172
511 263 511T395 472T436 346ZM212 222Q143 216 143 147T204 78Q254 78 310 94L328 100V233L212 222ZM105 647L341 748L375 654L131 576L105 647Z" />
<glyph unicode="&#xe2;" glyph-name="acircumflex" horiz-adv-x="507" d="M436 346V118Q437 96 447 86T480 72L477 -11Q391 -11 344 26Q264 -11 183 -11Q34 -11 34 148Q34 224 74 258T199 299L328 310V346Q328 386 311 402T259 418Q195 418 99 410L67 408L63 485Q172
511 263 511T395 472T436 346ZM212 222Q143 216 143 147T204 78Q254 78 310 94L328 100V233L212 222ZM88 585L213 731H282L409 585H307L249 661L191 585H88Z" />
<glyph unicode="&#xe3;" glyph-name="atilde" horiz-adv-x="507" d="M436 346V118Q437 96 447 86T480 72L477 -11Q391 -11 344 26Q264 -11 183 -11Q34 -11 34 148Q34 224 74 258T199 299L328 310V346Q328 386 311 402T259 418Q195 418 99 410L67 408L63 485Q172
511 263 511T395 472T436 346ZM212 222Q143 216 143 147T204 78Q254 78 310 94L328 100V233L212 222ZM368 629T343 613T296 597T227 617T164 637Q140 637 101 612L88 603L64 666L80 682Q89 691 115 706T162 722T232 702T293 682Q315 682 356 709L369 718L393 654L378
638Q368 629 343 613Z" />
<glyph unicode="&#xe4;" glyph-name="adieresis" horiz-adv-x="507" d="M436 346V118Q437 96 447 86T480 72L477 -11Q391 -11 344 26Q264 -11 183 -11Q34 -11 34 148Q34 224 74 258T199 299L328 310V346Q328 386 311 402T259 418Q195 418 99 410L67 408L63 485Q172
511 263 511T395 472T436 346ZM212 222Q143 216 143 147T204 78Q254 78 310 94L328 100V233L212 222ZM83 607V721H187V607H83ZM292 607V721H396V607H292Z" />
<glyph unicode="&#xe5;" glyph-name="aring" horiz-adv-x="507" d="M436 346V118Q437 96 447 86T480 72L477 -11Q391 -11 344 26Q264 -11 183 -11Q34 -11 34 148Q34 224 74 258T199 299L328 310V346Q328 386 311 402T259 418Q195 418 99 410L67 408L63 485Q172
511 263 511T395 472T436 346ZM212 222Q143 216 143 147T204 78Q254 78 310 94L328 100V233L212 222ZM213 530T181 561T149 640T181 720T260 752T339 720T372 640T340 562T260 530ZM239 691T225 677T211 641T225 605T260 590T296 604T310 640T296 676T261 691Z"
/>
<glyph unicode="&#xe6;" glyph-name="ae" horiz-adv-x="793" d="M706 94L735 97L737 12Q622 -11 528 -11T384 39L357 27Q271 -11 177 -11Q107 -11 71 31T34 150T76 261T211 301L328 310V342Q328 374 311 390T261 407Q186 407 102 399L70 396L66 492Q193 510 277
510T400 458Q449 510 549 510Q753 510 753 282L746 203H436Q437 143 463 116T560 88T706 94ZM197 82Q242 82 287 93T335 107Q327 154 327 226L212 218Q143 213 143 148T197 82ZM436 288H646Q646 356 622 385T543 414T462 384T436 288Z" />
<glyph unicode="&#xe7;" glyph-name="ccedilla" horiz-adv-x="442" d="M315 -43T343 -60T371 -128T344 -205T267 -231Q229 -231 190 -224L177 -221L181 -156Q215 -158 236 -158Q277 -158 277 -127Q277 -112 268 -106T236 -100H205V-8Q117 3 81 64T44 259T93 451T253
511Q306 511 378 497L403 492L399 406Q320 414 282 414Q206 414 180 380T154 252T179 122T283 86L400 94L403 7Q303 -11 252 -11V-42Q315 -43 343 -60Z" />
<glyph unicode="&#xe8;" glyph-name="egrave" horiz-adv-x="508" d="M422 90L450 93L452 12Q338 -11 250 -11Q139 -11 91 50T42 245Q42 511 259 511Q469 511 469 282L462 204H152Q153 142 179 113T276 84T422 90ZM362 288Q362 362 339 391T259 421T178 390T151
288H362ZM149 748L385 647L359 576L115 654L149 748Z" />
<glyph unicode="&#xe9;" glyph-name="eacute" horiz-adv-x="508" d="M422 90L450 93L452 12Q338 -11 250 -11Q139 -11 91 50T42 245Q42 511 259 511Q469 511 469 282L462 204H152Q153 142 179 113T276 84T422 90ZM362 288Q362 362 339 391T259 421T178 390T151
288H362ZM122 647L358 748L392 654L148 576L122 647Z" />
<glyph unicode="&#xea;" glyph-name="ecircumflex" horiz-adv-x="508" d="M422 90L450 93L452 12Q338 -11 250 -11Q139 -11 91 50T42 245Q42 511 259 511Q469 511 469 282L462 204H152Q153 142 179 113T276 84T422 90ZM362 288Q362 362 339 391T259 421T178 390T151
288H362ZM99 585L224 731H293L420 585H318L260 661L202 585H99Z" />
<glyph unicode="&#xeb;" glyph-name="edieresis" horiz-adv-x="508" d="M422 90L450 93L452 12Q338 -11 250 -11Q139 -11 91 50T42 245Q42 511 259 511Q469 511 469 282L462 204H152Q153 142 179 113T276 84T422 90ZM362 288Q362 362 339 391T259 421T178 390T151
288H362ZM100 607V721H204V607H100ZM309 607V721H413V607H309Z" />
<glyph unicode="&#xec;" glyph-name="igrave" horiz-adv-x="241" d="M66 0V500H175V0H66ZM-25 748L211 647L185 576L-59 654L-25 748Z" />
<glyph unicode="&#xed;" glyph-name="iacute" horiz-adv-x="241" d="M34 647L270 748L304 654L60 576L34 647ZM66 500H175V0H66V500Z" />
<glyph unicode="&#xee;" glyph-name="icircumflex" horiz-adv-x="241" d="M66 500H175V0H66V500ZM-44 585L81 731H150L277 585H175L117 661L59 585H-44Z" />
<glyph unicode="&#xef;" glyph-name="idieresis" horiz-adv-x="241" d="M66 500H175V0H66V500ZM-40 607V721H64V607H-40ZM169 607V721H273V607H169Z" />
<glyph unicode="&#xf0;" glyph-name="eth" horiz-adv-x="559" d="M377 633Q514 542 514 352T457 76T270 -9Q158 -9 99 47T40 210T94 376T254 435Q318 435 380 412L400 405Q395 460 370 500T288 573L164 490L119 553L204 610Q160 625 88 641L105 719Q217 704 298
673L396 739L442 676L377 633ZM261 338Q209 338 182 303T154 215Q154 89 270 89Q337 89 368 139T400 310Q333 338 261 338Z" />
<glyph unicode="&#xf1;" glyph-name="ntilde" horiz-adv-x="546" d="M66 0V500H174V469L194 480Q214 490 248 500T312 511Q412 511 448 455T485 268Q485 268 485 0H377V265Q377 346 360 380T286 414T175 388V0H66ZM419 629T394 613T347 597T278 617T216 637Q191
637 152 612L139 603L115 666L130 682Q140 691 166 706T213 722T283 702T344 682Q366 682 406 709L420 718L444 654L428 638Q419 629 394 613Z" />
<glyph unicode="&#xf2;" glyph-name="ograve" horiz-adv-x="530" d="M145 511T265 511T436 446T488 251T438 55T265 -11T92 55T42 251T93 446ZM198 81T265 81T355 121T378 252T354 381T265 419T177 381T152 252T175 121ZM165 748L401 647L375 576L131 654L165 748Z" />
<glyph unicode="&#xf3;" glyph-name="oacute" horiz-adv-x="530" d="M145 511T265 511T436 446T488 251T438 55T265 -11T92 55T42 251T93 446ZM198 81T265 81T355 121T378 252T354 381T265 419T177 381T152 252T175 121ZM132 647L368 748L402 654L158 576L132 647Z" />
<glyph unicode="&#xf4;" glyph-name="ocircumflex" horiz-adv-x="530" d="M145 511T265 511T436 446T488 251T438 55T265 -11T92 55T42 251T93 446ZM198 81T265 81T355 121T378 252T354 381T265 419T177 381T152 252T175 121ZM100 585L225 731H294L421 585H319L261
661L203 585H100Z" />
<glyph unicode="&#xf5;" glyph-name="otilde" horiz-adv-x="530" d="M145 511T265 511T436 446T488 251T438 55T265 -11T92 55T42 251T93 446ZM198 81T265 81T355 121T378 252T354 381T265 419T177 381T152 252T175 121ZM401 629T376 613T329 597T260 617T198
637Q173 637 134 612L121 603L97 666L112 682Q122 691 148 706T195 722T265 702T326 682Q348 682 388 709L402 718L426 654L410 638Q401 629 376 613Z" />
<glyph unicode="&#xf6;" glyph-name="odieresis" horiz-adv-x="530" d="M145 511T265 511T436 446T488 251T438 55T265 -11T92 55T42 251T93 446ZM198 81T265 81T355 121T378 252T354 381T265 419T177 381T152 252T175 121ZM107 607V721H211V607H107ZM316 607V721H420V607H316Z"
/>
<glyph unicode="&#xf7;" glyph-name="divide" horiz-adv-x="560" d="M105 241V351H173V428H386V351H455V241H105ZM225 23V141H333V23H225Z" />
<glyph unicode="&#xf8;" glyph-name="oslash" horiz-adv-x="530" d="M265 511Q291 511 329 505L370 606L438 581L396 480Q488 425 488 253Q488 121 438 55T265 -11Q227 -11 197 -5L154 -110L87 -85L131 20Q42 77 42 253Q42 381 93 446T265 511ZM265 81Q332 81
355 121T378 253T352 382L231 84Q246 81 265 81ZM265 419Q201 419 177 381T152 249T176 119L295 416Q282 419 265 419Z" />
<glyph unicode="&#xf9;" glyph-name="ugrave" horiz-adv-x="543" d="M369 500H477V0H369V31Q296 -11 234 -11Q131 -11 96 44T61 239V500H170V238Q170 148 185 117T255 86Q309 86 354 106L369 112V500ZM139 748L375 647L349 576L105 654L139 748Z" />
<glyph unicode="&#xfa;" glyph-name="uacute" horiz-adv-x="543" d="M477 500V0H369V31L349 20Q329 10 296 0T234 -11Q131 -11 96 44T61 239Q61 239 61 500H170V238Q170 148 185 117T257 86T369 112V500H477ZM141 647L377 748L411 654L167 576L141 647Z" />
<glyph unicode="&#xfb;" glyph-name="ucircumflex" horiz-adv-x="543" d="M477 500V0H369V31L349 20Q329 10 296 0T234 -11Q131 -11 96 44T61 239Q61 239 61 500H170V238Q170 148 185 117T257 86T369 112V500H477ZM92 585L217 731H286L413 585H311L253 661L195 585H92Z" />
<glyph unicode="&#xfc;" glyph-name="udieresis" horiz-adv-x="543" d="M477 500V0H369V31L349 20Q329 10 296 0T234 -11Q131 -11 96 44T61 239Q61 239 61 500H170V238Q170 148 185 117T257 86T369 112V500H477ZM117 607V721H221V607H117ZM326 607V721H430V607H326Z" />
<glyph unicode="&#xfd;" glyph-name="yacute" horiz-adv-x="492" d="M20 500H127L233 93H260L366 500H474L284 -215H177L237 0H151L20 500ZM136 647L372 748L406 654L162 576L136 647Z" />
<glyph unicode="&#xfe;" glyph-name="thorn" horiz-adv-x="536" d="M258 83Q332 83 357 122T383 250T360 377T286 414Q239 414 191 399L175 394V89Q228 83 258 83ZM299 511Q403 511 448 454T493 251T442 47T266 -11L175 -4V-215H66V708H175V481Q244 511 299 511Z" />
<glyph unicode="&#xff;" glyph-name="ydieresis" horiz-adv-x="492" d="M20 500H127L233 93H260L366 500H474L284 -215H177L237 0H151L20 500ZM90 607V721H194V607H90ZM299 607V721H403V607H299Z" />
<glyph unicode="&#x2013;" glyph-name="endash" horiz-adv-x="622" d="M61 313H561V220H61V313Z" />
<glyph unicode="&#x2014;" glyph-name="emdash" horiz-adv-x="1122" d="M61 313H1061V220H61V313Z" />
<glyph unicode="&#x2018;" glyph-name="quoteleft" horiz-adv-x="242" d="M201 691L156 456H42L118 691H201Z" />
<glyph unicode="&#x2019;" glyph-name="quoteright" horiz-adv-x="238" d="M47 457L92 692H206L130 457H47Z" />
<glyph unicode="&#x201a;" glyph-name="quotesinglbase" horiz-adv-x="239" d="M57 -57L79 56H133L97 -57H57Z" />
<glyph unicode="&#x201c;" glyph-name="quotedblleft" horiz-adv-x="413" d="M372 691L327 456H213L289 691H372ZM201 691L156 456H42L118 691H201Z" />
<glyph unicode="&#x201d;" glyph-name="quotedblright" horiz-adv-x="412" d="M47 458L92 693H206L130 458H47ZM220 458L265 693H379L303 458H220Z" />
<glyph unicode="&#x201e;" glyph-name="quotedblbase" horiz-adv-x="394" d="M165 115L120 -120H6L82 115H165ZM339 115L294 -120H180L256 115H339Z" />
<glyph unicode="&#x2022;" glyph-name="bullet" horiz-adv-x="460" d="M105 103V385H355V103H105Z" />
<glyph unicode="&#x2039;" glyph-name="guilsinglleft" horiz-adv-x="311" d="M251 330L135 247L251 153V42L42 204V285L251 440V330Z" />
<glyph unicode="&#x203a;" glyph-name="guilsinglright" horiz-adv-x="311" d="M175 254L59 337V447L268 292V212L59 49V160L175 254Z" />
</font>
</defs>
</svg>
